<?xml version="1.0" standalone="no"?>
<!DOCTYPE svg PUBLIC "-//W3C//DTD SVG 1.1//EN" "http://www.w3.org/Graphics/SVG/1.1/DTD/svg11.dtd">
<svg xmlns="http://www.w3.org/2000/svg">
<defs >
<font id="Rubik" horiz-adv-x="558" ><font-face
    font-family="Rubik"
    units-per-em="1000"
    panose-1="0 0 5 0 0 0 0 0 0 0"
    ascent="935"
    descent="-250"
    alphabetic="0" />
<glyph unicode=" " glyph-name="space" horiz-adv-x="246" />
<glyph unicode="!" glyph-name="exclam" horiz-adv-x="243" d="M90 164T84 170T77 187V677Q77 688 83 694T100 700H143Q153 700 159 694T166 677V187Q166 177 160 171T143 164H100Q90 164 84 170ZM81 0T75 6T68 23V84Q68 94 74 100T91 107H151Q161 107 168 101T175
84V23Q175 13 168 7T151 0H91Q81 0 75 6Z" />
<glyph unicode="&quot;" glyph-name="quotedbl" horiz-adv-x="370" d="M76 491T74 513L57 687V691Q57 700 62 705T77 710H140Q150 710 155 704T160 687L143 513Q141 491 123 491H94Q76 491 74 513ZM229 491T227 513L210 687V689Q210 699 215 704T230 710H293Q303
710 308 704T313 687L296 513Q294 491 276 491H247Q229 491 227 513Z" />
<glyph unicode="#" glyph-name="numbersign" horiz-adv-x="697" d="M166 39T160 45T154 60L173 182H73Q63 182 57 188T50 204V236Q50 246 56 252T73 258H184L210 436H99Q89 436 83 442T76 458V490Q76 500 82 506T99 512H222L240 634Q242 643 248 649T263 655H297Q306
655 312 649T317 634L299 512H449L467 634Q469 643 475 649T490 655H524Q533 655 539 649T544 634L526 512H625Q635 512 641 506T647 490V458Q647 448 641 442T625 436H515L489 258H599Q609 258 615 252T621 236V204Q621 194 615 188T599 182H477L459 60Q457 51
451 45T436 39H402Q393 39 387 45T381 60L400 182H250L232 60Q230 51 224 45T209 39H175Q166 39 160 45ZM262 258H411L437 436H288L262 258Z" />
<glyph unicode="$" glyph-name="dollar" horiz-adv-x="615" d="M280 -100T274 -94T267 -77V-7Q197 -1 147 25T70 91T41 176Q41 184 47 190T62 196H110Q129 196 136 176Q145 134 187 104T309 73Q394 73 436 103T478 186Q478 220 458 242T397 280T275 321Q198 343
152 368T83 429T60 522Q60 597 115 648T267 708V777Q267 788 273 794T290 800H326Q336 800 342 794T348 777V707Q412 699 458 671T527 606T553 530Q553 521 547 515T532 509H482Q474 509 467 514T457 529Q451 572 409 600T304 628Q236 628 196 602T156 523Q156
488 174 466T231 427T343 388Q428 364 477 340T550 281T574 189Q574 104 514 52T348 -8V-77Q348 -87 342 -93T326 -100H290Q280 -100 274 -94Z" />
<glyph unicode="%" glyph-name="percent" horiz-adv-x="759" d="M128 349T91 383T50 479Q49 496 49 523Q49 552 50 570Q53 632 89 668T193 705Q261 705 297 669T337 570Q339 534 339 523Q339 513 337 479Q334 418 296 384T193 349Q128 349 91 383ZM100 0T94 5T88
20Q88 26 92 31L586 681Q594 692 600 696T619 700H651Q660 700 665 695T671 680Q671 674 667 669L174 19Q166 9 160 5T141 0H109Q100 0 94 5ZM229 410T246 431T266 483Q268 519 268 525Q268 534 266 566Q264 597 247 618T193 640Q157 640 140 619T121 566Q120 550
120 525Q120 501 121 483Q124 453 140 432T193 410Q229 410 246 431ZM500 -6T463 31T422 129Q420 159 420 169Q420 179 422 219Q425 281 461 317T565 354Q633 354 669 318T709 219Q711 183 711 173Q711 163 709 129Q706 68 668 31T565 -6Q500 -6 463 31ZM601 59T618
80T638 132Q640 168 640 175Q640 183 638 215Q636 246 619 267T565 289Q529 289 512 268T493 215Q492 199 492 175Q492 150 493 132Q495 102 512 81T565 59Q601 59 618 80Z" />
<glyph unicode="&amp;" glyph-name="ampersand" horiz-adv-x="692" d="M219 -10T167 15T86 85T57 187Q57 250 94 294T198 378Q150 429 131 466T111 546Q111 590 134 627T199 687T297 710Q350 710 392 689T457 630T480 547Q480 486 441 445T327 361L499 192Q539
258 553 346Q554 355 559 360T575 366H616Q625 366 631 360T637 345Q635 300 615 244T557 135L659 34Q667 28 667 19Q667 0 648 0H595Q578 0 568 10L502 76Q414 -10 286 -10Q219 -10 167 15ZM333 450T364 478T395 545Q395 586 367 610T296 635Q256 635 227 610T198
545Q198 518 213 491T273 418Q333 450 364 478ZM328 68T369 85T443 136L253 320Q201 291 173 261T145 189Q145 133 186 101T286 68Q328 68 369 85Z" />
<glyph unicode="&apos;" glyph-name="quotesingle" horiz-adv-x="217" d="M76 491T74 513L57 687V691Q57 700 62 705T77 710H140Q150 710 155 704T160 687L143 513Q141 491 123 491H94Q76 491 74 513Z" />
<glyph unicode="(" glyph-name="parenleft" horiz-adv-x="336" d="M203 -159T153 -111T80 40T58 309Q58 476 80 577T152 727T289 776Q299 776 305 770T312 753V720Q312 711 306 705T292 698Q235 697 203 660T157 539T143 309Q143 162 157 79T203 -42T292 -81Q300
-81 306 -87T312 -103V-136Q312 -146 306 -152T289 -159Q203 -159 153 -111Z" />
<glyph unicode=")" glyph-name="parenright" horiz-adv-x="336" d="M38 -159T32 -153T25 -136V-103Q25 -94 31 -88T45 -81Q101 -80 133 -43T180 79T194 309Q194 455 180 538T134 659T45 698Q37 698 31 704T25 720V753Q25 763 31 769T47 776Q133 776 183 728T256
578T278 309Q278 142 256 40T184 -110T47 -159Q38 -159 32 -153Z" />
<glyph unicode="*" glyph-name="asterisk" horiz-adv-x="446" d="M103 445Q94 451 94 463Q94 469 98 475Q98 476 104 482L177 549L78 560L70 562Q62 564 58 572T56 590L73 641Q75 649 83 653T100 655L108 651L194 603L175 700L174 708Q174 716 180 723T196 730H250Q259
730 265 723T272 708L271 700L250 602L338 651L346 655Q348 656 351 656Q359 656 365 652T373 641L390 590L391 584Q391 577 387 571T376 562L368 560L268 548L342 482Q348 476 348 475Q352 469 352 463Q352 451 343 445L300 413Q294 410 287 410Q274 410 269 418L265
425L223 517L181 425Q179 421 176 418Q171 410 158 410Q151 410 145 413L103 445Z" />
<glyph unicode="+" glyph-name="plus" horiz-adv-x="622" d="M285 33T279 39T272 56V265H65Q55 265 49 271T42 288V318Q42 328 48 334T65 341H272V544Q272 555 278 561T295 567H327Q338 567 344 561T350 544V341H557Q567 341 573 335T580 318V288Q580 278 574
272T557 265H350V56Q350 46 344 40T327 33H295Q285 33 279 39Z" />
<glyph unicode="," glyph-name="comma" horiz-adv-x="248" d="M59 -75T55 -69T52 -54L74 87Q78 116 102 116H166Q173 116 178 111T183 99Q183 91 179 82L127 -52Q118 -75 99 -75H68Q59 -75 55 -69Z" />
<glyph unicode="-" glyph-name="hyphen" horiz-adv-x="484" d="M82 260T76 266T69 282V318Q69 328 75 334T92 341H392Q402 341 408 335T415 318V282Q415 272 409 266T392 260H92Q82 260 76 266Z" />
<glyph unicode="." glyph-name="period" horiz-adv-x="250" d="M81 0T75 6T68 23V92Q68 102 74 109T91 116H160Q170 116 176 109T183 92V23Q183 13 177 7T160 0H91Q81 0 75 6Z" />
<glyph unicode="/" glyph-name="slash" horiz-adv-x="479" d="M38 -84T32 -78T26 -64Q26 -60 29 -52L371 769Q380 786 397 786H434Q442 786 448 780T454 766Q454 762 451 754L108 -67Q106 -73 100 -78T82 -84H46Q38 -84 32 -78Z" />
<glyph unicode="0" glyph-name="zero" horiz-adv-x="633" d="M187 -10T128 65T64 263L63 349L64 438Q67 559 127 634T316 710Q445 710 505 635T569 438Q570 410 570 349Q570 290 569 263Q565 141 506 66T316 -10Q187 -10 128 65ZM393 73T432 124T473 268Q474 297
474 351Q474 406 473 433Q471 525 432 576T316 628Q240 628 201 577T160 433L159 351L160 268Q162 175 201 124T316 73Q393 73 432 124Z" />
<glyph unicode="1" glyph-name="one" horiz-adv-x="425" d="M266 0T260 6T254 23V587L86 458Q79 452 71 452Q62 452 54 462L30 493Q25 500 25 507Q25 518 35 525L252 693Q263 700 278 700H325Q335 700 341 694T348 677V23Q348 13 342 7T325 0H276Q266 0 260 6Z" />
<glyph unicode="2" glyph-name="two" horiz-adv-x="584" d="M62 0T56 6T49 23V53Q49 76 74 97L292 314Q366 377 394 417T422 502Q422 561 389 594T293 628Q233 628 198 593T155 499Q153 488 145 482T129 476H81Q72 476 66 482T60 496Q62 549 88 598T167 679T293
711Q405 711 461 653T518 504Q518 441 488 391T392 284L195 84H510Q521 84 527 78T533 61V23Q533 13 527 7T510 0H72Q62 0 56 6Z" />
<glyph unicode="3" glyph-name="three" horiz-adv-x="598" d="M218 -10T161 15T75 82T43 167Q43 176 49 181T64 187H109Q120 187 127 183T138 165Q151 114 194 93T297 72Q369 72 411 106T454 205Q454 327 305 327H211Q201 327 195 333T188 350V376Q188 391 199
402L394 618H98Q88 618 82 624T75 640V676Q75 687 81 693T98 700H494Q505 700 511 694T518 676V643Q518 632 508 620L313 401H329Q431 398 490 348T550 202Q550 136 518 89T427 16T296 -10Q218 -10 161 15Z" />
<glyph unicode="4" glyph-name="four" horiz-adv-x="618" d="M392 0T386 6T379 23V169H54Q44 169 38 175T31 192V229Q31 243 42 259L343 683Q348 691 358 695T380 700H448Q459 700 465 694T471 677V253H562Q572 253 578 247T585 230V192Q585 182 579 176T562 169H471V23Q471
13 465 7T448 0H402Q392 0 386 6ZM135 251H380V599L135 251Z" />
<glyph unicode="5" glyph-name="five" horiz-adv-x="592" d="M216 -10T161 17T77 87T46 181V183Q46 191 52 196T66 201H115Q136 201 142 179Q157 125 197 99T291 72Q359 72 404 113T449 228Q449 295 404 334T291 374Q255 374 233 365T188 339Q175 329 167 325T148
320H100Q91 320 84 326T78 342L109 675Q112 700 134 700H480Q491 700 497 694T503 677V640Q503 630 497 624T480 618H192L174 417Q222 451 303 451Q370 451 425 425T512 347T545 226Q545 152 513 99T423 18T291 -10Q216 -10 161 17Z" />
<glyph unicode="6" glyph-name="six" horiz-adv-x="600" d="M227 -10T169 22T80 110T49 230Q49 316 118 414L309 680Q310 681 314 687T326 696T342 700H391Q400 700 405 694T411 678Q411 673 406 665L260 461Q286 467 318 467Q391 467 446 435T532 349T563 231Q563
167 533 112T444 23T307 -10Q227 -10 169 22ZM350 73T387 91T446 144T468 230Q468 279 446 314T386 368T306 387Q263 387 226 369T167 315T145 230Q145 180 167 145T226 91T306 73Q350 73 387 91Z" />
<glyph unicode="7" glyph-name="seven" horiz-adv-x="510" d="M141 0T136 6T130 22L132 31L382 616H52Q42 616 36 622T29 639V676Q29 687 35 693T52 700H460Q471 700 477 694T483 676V642Q483 624 475 603L228 25Q223 14 217 7T200 0H150Q141 0 136 6Z" />
<glyph unicode="8" glyph-name="eight" horiz-adv-x="634" d="M241 -10T182 15T89 89T56 201Q56 260 85 304T165 373Q125 396 103 433T81 522Q81 609 146 659T317 710Q423 710 487 660T552 522Q552 472 530 435T469 373Q519 349 548 305T578 200Q578 136 545 89T453
16T317 -10Q241 -10 182 15ZM378 410T420 440T462 520Q462 571 421 601T317 632Q254 632 213 602T172 520Q172 469 213 439T317 408Q378 410 420 440ZM388 68T435 104T483 200Q483 260 436 296T317 332Q245 332 198 296T150 200Q150 140 197 104T317 68Q388 68
435 104Z" />
<glyph unicode="9" glyph-name="nine" horiz-adv-x="591" d="M185 0T180 6T174 22Q174 29 178 35L332 249Q308 243 276 243Q204 244 150 276T68 361T39 474Q39 534 67 588T152 676T289 710Q369 710 426 677T512 591T541 476Q541 421 522 379T470 292L276 20Q269
11 263 6T244 0H194Q185 0 180 6ZM332 322T368 341T425 394T446 474Q446 520 425 555T368 609T289 628Q247 628 212 609T155 555T134 474Q134 429 155 395T211 341T289 322Q332 322 368 341Z" />
<glyph unicode=":" glyph-name="colon" horiz-adv-x="255" d="M82 350T76 356T70 373V440Q70 451 76 457T92 464H161Q172 464 178 458T185 440V373Q185 363 178 357T161 350H92Q82 350 76 356ZM82 0T76 6T70 23V90Q70 101 76 107T92 114H161Q172 114 178 108T185
90V23Q185 13 178 7T161 0H92Q82 0 76 6Z" />
<glyph unicode=";" glyph-name="semicolon" horiz-adv-x="270" d="M95 350T89 356T82 373V440Q82 451 88 457T105 464H174Q184 464 190 457T197 440V373Q197 363 191 357T174 350H105Q95 350 89 356ZM72 -75T68 -69T65 -54L87 87Q91 116 115 116H179Q186 116 190
111T195 99Q195 93 192 82L140 -52Q135 -64 129 -69T111 -75H80Q72 -75 68 -69Z" />
<glyph unicode="&lt;" glyph-name="less" horiz-adv-x="491" d="M395 72T378 83L66 298Q50 308 44 318T37 343V360Q37 374 43 384T66 406L378 621Q380 622 388 626T402 631Q411 631 417 626T423 611V570Q423 559 418 552T400 537L130 352L400 167Q413 158 418
151T423 134V93Q423 83 417 78T402 72Q395 72 378 83Z" />
<glyph unicode="=" glyph-name="equal" horiz-adv-x="570" d="M85 387T79 393T72 410V441Q72 451 78 457T95 463H475Q485 463 491 457T498 441V410Q498 400 492 394T475 387H95Q85 387 79 393ZM85 137T79 143T72 160V191Q72 201 78 207T95 213H475Q485 213 491
207T498 191V160Q498 150 492 144T475 137H95Q85 137 79 143Z" />
<glyph unicode="&gt;" glyph-name="greater" horiz-adv-x="490" d="M80 72T74 78T68 93V134Q68 144 73 151T91 167L361 352L91 537Q79 545 74 552T68 570V611Q68 620 73 625T88 631Q94 631 102 627T113 621L425 406Q441 395 447 385T454 360V343Q454 329 448 319T425
298L113 83Q97 72 88 72Q80 72 74 78Z" />
<glyph unicode="?" glyph-name="question" horiz-adv-x="528" d="M234 161T228 167T222 183V224Q224 277 249 316T322 403Q358 440 375 464T396 516Q397 520 397 529Q397 575 358 602T267 629Q211 629 174 600T125 507Q121 485 99 485H55Q46 485 40 491T33 507Q35
562 64 608T147 682T270 710Q343 710 393 685T467 620T491 534Q491 483 468 446T399 360Q361 319 342 291T320 227Q318 199 318 185Q313 161 293 161H244Q234 161 228 167ZM225 0T219 6T212 23V81Q212 91 218 98T235 105H297Q307 105 314 98T321 81V23Q321 13 314
7T297 0H235Q225 0 219 6Z" />
<glyph unicode="@" glyph-name="at" horiz-adv-x="831" d="M253 -118T164 -39T60 187Q57 216 57 274Q57 333 60 358Q76 500 165 582T407 665Q583 665 671 586T768 358Q770 312 770 288Q770 247 768 227Q764 155 729 117T633 79Q590 79 563 97T523 136Q506 108
478 89T397 69Q321 69 278 122T234 273Q234 369 278 423T396 478Q433 478 456 465T498 430V447Q498 457 504 463T521 470H547Q557 470 563 464T570 447V233Q570 192 587 170T633 148Q669 148 682 174T697 234Q699 258 699 296Q699 313 697 353Q688 475 621 535T407
596Q285 596 216 533T132 353Q129 328 129 274Q129 221 132 192Q145 76 215 14T410 -49Q476 -49 518 -38T579 -17T626 16Q628 18 635 23T652 29H690Q699 29 705 23T712 7Q712 0 707 -8Q660 -58 590 -88T410 -118Q253 -118 164 -39ZM454 138T476 173T498 273Q498
339 476 374T402 410Q305 410 305 273Q305 213 329 176T402 138Q454 138 476 173Z" />
<glyph unicode="A" glyph-name="A" horiz-adv-x="668" d="M32 0T26 6T20 20L22 31L270 678Q278 700 302 700H366Q390 700 398 678L646 31L648 20Q648 12 642 6T627 0H580Q570 0 564 5T555 17L499 161H168L113 17Q105 0 88 0H40Q32 0 26 6ZM197 244H471L334 603L197 244Z" />
<glyph unicode="B" glyph-name="B" horiz-adv-x="667" d="M100 0T94 6T88 23V676Q88 687 94 693T110 700H383Q489 700 543 649T597 516Q597 460 571 423T510 368Q553 347 582 303T611 202Q611 146 586 100T510 27T391 0H110Q100 0 94 6ZM368 403Q433 403 467 432T501
515Q501 567 468 594T368 621H182V403H368ZM378 79Q442 79 478 113T515 202Q515 257 479 291T378 325H182V79H378Z" />
<glyph unicode="C" glyph-name="C" horiz-adv-x="665" d="M205 -10T136 62T61 261Q60 288 60 349Q60 411 61 439Q66 565 135 637T338 710Q427 710 489 679T582 596T617 487Q617 478 611 473T595 467H545Q535 467 529 472T520 489Q503 566 459 597T338 628Q164
628 157 434Q156 407 156 351Q156 295 157 266Q164 73 338 73Q413 73 458 104T520 211Q523 223 529 228T545 233H595Q604 233 610 228T617 213Q614 155 583 104T489 22T338 -10Q205 -10 136 62Z" />
<glyph unicode="D" glyph-name="D" horiz-adv-x="688" d="M100 0T94 6T88 23V676Q88 687 94 693T110 700H336Q487 700 554 633T623 429Q624 400 624 351Q624 302 623 272Q621 177 593 118T503 29T341 0H110Q100 0 94 6ZM336 83Q406 83 447 102T507 163T528 276Q530
336 530 351Q530 367 528 425Q526 525 481 571T331 618H182V83H336Z" />
<glyph unicode="E" glyph-name="E" horiz-adv-x="605" d="M100 0T94 6T88 23V676Q88 687 94 693T110 700H521Q532 700 538 694T545 676V640Q545 630 539 624T521 618H180V395H499Q510 395 516 389T523 371V337Q523 327 517 321T499 314H180V83H529Q540 83 546
77T553 59V23Q553 13 546 7T529 0H110Q100 0 94 6Z" />
<glyph unicode="F" glyph-name="F" horiz-adv-x="583" d="M100 0T94 6T88 23V676Q88 687 94 693T110 700H516Q527 700 533 694T540 676V639Q540 629 534 623T516 616H181V379H496Q507 379 513 373T520 356V318Q520 308 513 302T496 295H181V23Q181 13 174 7T157
0H110Q100 0 94 6Z" />
<glyph unicode="G" glyph-name="G" horiz-adv-x="679" d="M211 -10T139 62T62 257Q61 287 61 351Q61 416 62 445Q66 567 138 638T341 710Q429 710 490 678T582 602T615 519V517Q615 509 609 504T594 498H538Q529 498 525 502T516 517Q500 564 457 596T341 628Q257
628 209 582T158 440Q157 411 157 351Q157 292 158 262Q161 165 209 119T341 73Q426 73 477 119T528 259V302H375Q365 302 359 309T352 326V356Q352 366 358 373T375 380H599Q610 380 616 374T623 356V261Q623 180 590 119T492 24T341 -10Q211 -10 139 62Z" />
<glyph unicode="H" glyph-name="H" horiz-adv-x="712" d="M100 0T94 6T88 23V676Q88 687 94 693T110 700H158Q169 700 175 694T182 676V398H530V676Q530 687 536 693T553 700H601Q612 700 618 694T625 676V23Q625 13 618 7T601 0H553Q543 0 537 6T530 23V311H182V23Q182
13 175 7T158 0H110Q100 0 94 6Z" />
<glyph unicode="I" glyph-name="I" horiz-adv-x="271" d="M100 0T94 6T88 23V677Q88 687 94 693T110 700H160Q171 700 177 694T183 677V23Q183 13 177 7T160 0H110Q100 0 94 6Z" />
<glyph unicode="J" glyph-name="J" horiz-adv-x="632" d="M186 -10T115 43T39 201Q39 210 45 216T60 223H111Q133 223 136 200Q142 135 186 104T296 73Q372 73 413 123T455 258V616H98Q88 616 82 622T75 639V677Q75 687 81 693T98 700H527Q538 700 544 694T551
676V256Q551 176 521 116T432 23T295 -10Q186 -10 115 43Z" />
<glyph unicode="K" glyph-name="K" horiz-adv-x="598" d="M100 0T94 6T88 23V676Q88 687 94 693T110 700H157Q168 700 174 694T181 676V427L452 684Q468 700 491 700H541Q549 700 555 694T561 680Q561 672 556 667L244 365L577 34Q582 28 582 20Q582 12 576 6T562
0H510Q496 0 488 4T471 16L181 299V23Q181 13 174 7T157 0H110Q100 0 94 6Z" />
<glyph unicode="L" glyph-name="L" horiz-adv-x="561" d="M100 0T94 6T88 23V677Q88 687 94 693T110 700H160Q170 700 176 694T182 677V84H516Q527 84 533 78T540 61V23Q540 13 533 7T516 0H110Q100 0 94 6Z" />
<glyph unicode="M" glyph-name="M" horiz-adv-x="793" d="M101 0T95 6T88 23V676Q88 687 94 693T111 700H158Q176 700 183 685L396 276L611 685Q619 700 635 700H682Q693 700 699 694T705 676V23Q705 13 699 7T682 0H636Q626 0 620 6T614 23V520L443 189Q433 168
411 168H381Q360 168 349 189L179 520V23Q179 13 173 7T156 0H111Q101 0 95 6Z" />
<glyph unicode="N" glyph-name="N" horiz-adv-x="693" d="M100 0T94 6T88 23V676Q88 687 94 693T110 700H154Q164 700 169 696T179 686L514 170V676Q514 687 520 693T537 700H582Q593 700 599 694T606 676V24Q606 14 600 7T583 0H538Q521 0 514 14L179 525V23Q179
13 173 7T156 0H110Q100 0 94 6Z" />
<glyph unicode="O" glyph-name="O" horiz-adv-x="675" d="M208 -10T137 58T62 265Q61 295 61 350Q61 405 62 434Q66 570 139 640T338 710Q463 710 536 640T613 434Q615 376 615 350Q615 325 613 265Q609 127 539 59T338 -10Q208 -10 137 58ZM418 73T466 121T518
270Q520 330 520 350Q520 372 518 430Q514 530 466 579T338 628Q258 628 210 579T158 430Q157 401 157 350Q157 300 158 270Q161 170 209 122T338 73Q418 73 466 121Z" />
<glyph unicode="P" glyph-name="P" horiz-adv-x="641" d="M100 0T94 6T88 23V676Q88 687 94 693T110 700H363Q476 700 540 646T605 487Q605 383 541 329T363 275H183V23Q183 13 177 7T160 0H110Q100 0 94 6ZM358 356Q509 356 509 487Q509 551 472 585T358 619H183V356H358Z"
/>
<glyph unicode="Q" glyph-name="Q" horiz-adv-x="675" d="M528 -65T520 -59T505 -42L464 15Q411 -10 338 -10Q208 -10 137 58T62 265Q61 295 61 350Q61 405 62 434Q66 570 139 640T338 710Q463 710 536 640T613 434Q615 376 615 350Q615 325 613 265Q609 127 540
60L607 -34Q610 -40 610 -45Q610 -53 604 -59T590 -65H539Q528 -65 520 -59ZM418 73T466 121T517 270Q519 330 519 350Q519 372 517 430Q514 530 466 579T338 628Q258 628 210 579T158 430Q157 401 157 350Q157 300 158 270Q161 170 209 122T338 73Q418 73 466
121Z" />
<glyph unicode="R" glyph-name="R" horiz-adv-x="654" d="M100 0T94 6T88 23V676Q88 687 94 693T110 700H354Q468 700 532 647T597 491Q597 415 559 366T453 298L607 31Q610 25 610 20Q610 12 604 6T590 0H546Q531 0 523 7T507 27L360 283H182V23Q182 13 175 7T158
0H110Q100 0 94 6ZM350 365Q501 365 501 492Q501 619 350 619H182V365H350Z" />
<glyph unicode="S" glyph-name="S" horiz-adv-x="620" d="M229 -10T169 16T77 84T43 176Q43 184 49 190T64 196H113Q131 196 138 176Q147 134 189 104T311 73Q396 73 438 103T480 186Q480 220 460 242T399 280T277 321Q200 343 155 368T86 429T63 522Q63 576 92
618T176 685T306 710Q384 710 439 683T524 614T555 530Q555 521 549 515T534 509H484Q476 509 469 514T459 529Q453 572 411 600T306 628Q238 628 198 602T158 523Q158 488 176 466T233 427T346 388Q431 364 479 340T552 281T576 189Q576 95 505 43T311 -10Q229
-10 169 16Z" />
<glyph unicode="T" glyph-name="T" horiz-adv-x="577" d="M254 0T248 6T241 23V614H48Q38 614 32 620T25 637V676Q25 687 31 693T48 700H528Q539 700 545 694T551 676V637Q551 627 545 621T528 614H336V23Q336 13 329 7T312 0H264Q254 0 248 6Z" />
<glyph unicode="U" glyph-name="U" horiz-adv-x="700" d="M222 -10T152 59T82 270V676Q82 687 88 693T104 700H152Q163 700 169 694T176 676V268Q176 170 221 122T351 74Q434 74 479 122T525 268V676Q525 687 531 693T548 700H596Q606 700 612 694T619 676V270Q619
129 550 60T351 -10Q222 -10 152 59Z" />
<glyph unicode="V" glyph-name="V" horiz-adv-x="653" d="M270 0T260 26L35 669L33 680Q33 688 39 694T54 700H102Q113 700 119 695T128 682L326 110L525 682Q527 689 533 694T551 700H599Q607 700 613 694T619 680Q619 673 618 669L393 26Q383 0 357 0H296Q270
0 260 26Z" />
<glyph unicode="W" glyph-name="W" horiz-adv-x="799" d="M181 0T175 26L46 669L44 680Q44 688 50 694T64 700H113Q134 700 137 683L240 161L351 521Q357 545 382 545H417Q441 545 449 521L559 161L662 683Q665 700 687 700H735Q743 700 749 694T755 680Q755 674
754 669L624 26Q619 0 593 0H557Q532 0 524 25L400 410L275 25Q268 0 243 0H206Q181 0 175 26Z" />
<glyph unicode="X" glyph-name="X" horiz-adv-x="631" d="M37 0T31 6T25 20Q25 27 29 33L258 356L40 667Q36 673 36 680Q36 688 42 694T56 700H113Q127 700 139 683L318 430L495 683Q505 700 521 700H574Q582 700 588 694T594 680Q594 673 590 667L374 355L603
33Q607 27 607 20Q607 12 601 6T586 0H529Q514 0 503 16L314 280L126 16Q115 0 100 0H45Q37 0 31 6Z" />
<glyph unicode="Y" glyph-name="Y" horiz-adv-x="645" d="M288 0T282 6T275 23V260L34 667Q31 673 31 680Q31 688 37 694T51 700H99Q117 700 125 683L323 356L520 683Q530 700 546 700H594Q602 700 608 694T615 680Q615 675 611 667L370 260V23Q370 13 364 7T346
0H298Q288 0 282 6Z" />
<glyph unicode="Z" glyph-name="Z" horiz-adv-x="598" d="M54 0T48 6T41 24V64Q41 81 48 91T56 102L431 616H73Q63 616 57 622T50 639V676Q50 687 56 693T73 700H523Q534 700 540 694T547 676V636Q547 618 534 601L163 84H534Q545 84 551 78T558 61V23Q558 13
551 7T534 0H64Q54 0 48 6Z" />
<glyph unicode="[" glyph-name="bracketleft" horiz-adv-x="323" d="M86 -159T80 -153T74 -136V753Q74 763 80 769T96 776H273Q283 776 289 770T296 753V720Q296 710 290 704T273 697H160V-77H273Q283 -77 289 -83T296 -100V-136Q296 -146 290 -152T273 -159H96Q86
-159 80 -153Z" />
<glyph unicode="\" glyph-name="backslash" horiz-adv-x="479" d="M386 -84T380 -79T371 -67L28 754Q25 762 25 766Q25 774 31 780T45 786H82Q100 786 108 769L450 -52Q453 -60 453 -64Q453 -72 447 -78T433 -84H397Q386 -84 380 -79Z" />
<glyph unicode="]" glyph-name="bracketright" horiz-adv-x="323" d="M40 -159T34 -153T27 -136V-100Q27 -90 33 -84T50 -77H163V697H50Q40 697 34 703T27 720V753Q27 763 33 769T50 776H227Q237 776 243 770T249 753V-136Q249 -146 243 -152T227 -159H50Q40 -159
34 -153Z" />
<glyph unicode="^" glyph-name="asciicircum" horiz-adv-x="430" d="M66 578T66 590Q66 598 77 609L168 700Q178 710 184 712T201 715H229Q239 715 245 713T262 700L353 609Q364 599 364 590Q364 578 350 578H325Q309 578 297 585L215 642L133 585Q122 578 106
578H81Q66 578 66 590Z" />
<glyph unicode="_" glyph-name="underscore" horiz-adv-x="748" d="M74 -40T68 -34T61 -17V19Q61 29 67 35T84 41H664Q674 41 680 35T687 19V-17Q687 -27 681 -33T664 -40H84Q74 -40 68 -34Z" />
<glyph unicode="`" glyph-name="grave" horiz-adv-x="334" d="M209 595T203 597T188 606L72 701Q67 706 67 713Q67 732 86 732H151Q165 732 172 729T188 714L263 624Q268 619 268 611Q268 595 252 595H220Q209 595 203 597Z" />
<glyph unicode="a" glyph-name="a" horiz-adv-x="550" d="M170 -10T129 10T63 64T38 141Q38 207 92 249T239 305L389 326V355Q389 458 270 458Q224 458 196 440T155 396Q151 386 147 383T134 379H95Q86 379 80 385T73 401Q73 424 94 454T161 507T271 530Q383 530
431 478T480 348V23Q480 13 474 7T457 0H413Q403 0 397 6T391 23V67Q369 34 327 12T219 -10Q170 -10 129 10ZM305 63T347 106T389 231V259L272 242Q200 232 163 208T126 148Q126 107 159 85T239 63Q305 63 347 106Z" />
<glyph unicode="b" glyph-name="b" horiz-adv-x="594" d="M221 -10T164 66V23Q164 13 158 7T141 0H99Q89 0 83 6T76 23V687Q76 698 82 704T99 710H144Q154 710 160 704T167 687V456Q223 530 329 530Q434 530 486 462T542 290Q543 279 543 260Q543 241 542 230Q539
127 487 59T329 -10Q221 -10 164 66ZM382 68T415 113T451 231Q452 241 452 260Q452 452 310 452Q242 452 206 408T167 302Q166 291 166 263Q166 236 167 225Q169 161 204 115T310 68Q382 68 415 113Z" />
<glyph unicode="c" glyph-name="c" horiz-adv-x="550" d="M176 -10T116 50T53 220L52 260L53 300Q56 409 116 469T283 530Q355 530 404 505T478 441T505 365Q506 356 499 349T482 342H438Q428 342 423 346T413 363Q395 412 364 432T284 453Q221 453 184 414T144
295L143 260L144 225Q147 145 184 106T284 67Q333 67 364 87T413 157Q418 169 423 173T438 178H482Q491 178 498 171T505 155Q503 118 479 80T405 16T283 -10Q176 -10 116 50Z" />
<glyph unicode="d" glyph-name="d" horiz-adv-x="594" d="M160 -10T108 58T51 230L50 260L51 290Q55 393 108 461T265 530Q369 530 427 456V687Q427 697 433 703T450 710H495Q505 710 511 704T518 687V23Q518 13 512 7T495 0H452Q442 0 436 6T430 23V66Q373 -10
265 -10Q160 -10 108 58ZM354 68T389 114T427 225Q428 236 428 263Q428 291 427 302Q425 363 389 407T284 452Q212 452 179 407T143 289L142 260Q142 68 284 68Q354 68 389 114Z" />
<glyph unicode="e" glyph-name="e" horiz-adv-x="559" d="M179 -10T118 53T51 227L50 261L51 294Q57 402 118 466T281 530Q391 530 451 460T512 270V252Q512 242 506 236T489 229H142V220Q145 155 182 109T280 63Q327 63 356 81T401 120Q410 132 415 134T432 137H476Q485
137 491 132T498 119Q498 97 471 66T395 13T281 -10Q179 -10 118 53ZM421 297V300Q421 370 383 414T281 458Q216 458 179 414T142 300V297H421Z" />
<glyph unicode="f" glyph-name="f" horiz-adv-x="382" d="M140 0T134 6T127 23V443H41Q31 443 25 449T18 465V497Q18 507 24 513T41 520H127V570Q127 651 166 695T296 740H355Q365 740 371 734T378 717V685Q378 675 372 669T355 663H298Q252 663 234 639T216 565V520H345Q355
520 361 514T368 497V465Q368 455 362 449T345 443H216V23Q216 13 210 7T193 0H150Q140 0 134 6Z" />
<glyph unicode="g" glyph-name="g" horiz-adv-x="595" d="M203 -220T153 -192T83 -128T62 -66Q62 -57 69 -51T85 -44H129Q138 -44 144 -48T154 -65Q182 -145 281 -145Q356 -145 392 -113T428 0V69Q370 -5 266 -5Q160 -5 108 63T52 235L51 263L52 290Q55 393 107
461T266 530Q371 530 430 453V496Q430 506 436 513T453 520H496Q506 520 512 513T519 496V11Q519 -220 286 -220Q203 -220 153 -192ZM354 73T389 118T428 228Q429 237 429 263Q429 288 428 297Q425 361 390 406T284 452Q212 452 180 407T144 289L143 263L144 236Q147
164 179 119T284 73Q354 73 389 118Z" />
<glyph unicode="h" glyph-name="h" horiz-adv-x="607" d="M89 0T83 6T76 23V687Q76 698 82 704T99 710H145Q156 710 162 704T168 687V454Q197 491 236 510T334 530Q430 530 483 469T537 306V23Q537 13 531 7T514 0H467Q457 0 451 6T444 23V300Q444 372 409 412T308
452Q244 452 206 412T168 300V23Q168 13 162 7T145 0H99Q89 0 83 6Z" />
<glyph unicode="i" glyph-name="i" horiz-adv-x="240" d="M80 618T74 624T67 641V693Q67 703 73 710T90 717H149Q159 717 166 710T173 693V641Q173 631 166 625T149 618H90Q80 618 74 624ZM88 0T82 6T75 23V497Q75 507 81 513T98 520H142Q152 520 158 514T165
497V23Q165 13 159 7T142 0H98Q88 0 82 6Z" />
<glyph unicode="j" glyph-name="j" horiz-adv-x="252" d="M89 618T83 624T76 641V693Q76 703 82 710T99 717H161Q171 717 177 710T184 693V641Q184 631 178 625T161 618H99Q89 618 83 624ZM-21 -190T-27 -184T-33 -167V-135Q-33 -125 -27 -119T-11 -113H3Q52 -113
68 -88T85 -13V497Q85 508 91 514T108 520H153Q163 520 169 514T176 497V-14Q176 -190 8 -190H-11Q-21 -190 -27 -184Z" />
<glyph unicode="k" glyph-name="k" horiz-adv-x="513" d="M89 0T83 6T76 23V687Q76 698 82 704T99 710H142Q152 710 158 704T165 687V338L365 503Q380 514 386 517T405 520H455Q464 520 469 515T475 499Q475 490 464 480L230 288L489 40Q500 29 500 21Q500 12
495 6T480 0H431Q416 0 410 3T391 17L165 231V23Q165 13 159 7T142 0H99Q89 0 83 6Z" />
<glyph unicode="l" glyph-name="l" horiz-adv-x="241" d="M89 0T83 6T76 23V687Q76 698 82 704T99 710H143Q153 710 159 704T166 687V23Q166 13 160 7T143 0H99Q89 0 83 6Z" />
<glyph unicode="m" glyph-name="m" horiz-adv-x="888" d="M88 0T82 6T75 23V497Q75 507 81 513T98 520H140Q150 520 156 514T162 497V463Q216 530 308 530Q418 530 464 438Q488 480 532 505T632 530Q714 530 766 474T818 312V23Q818 13 812 7T795 0H752Q742 0
736 6T729 23V303Q729 383 696 417T609 452Q561 452 527 417T492 303V23Q492 13 486 7T469 0H425Q415 0 409 6T402 23V303Q402 382 368 417T282 452Q234 452 200 417T165 304V23Q165 13 159 7T142 0H98Q88 0 82 6Z" />
<glyph unicode="n" glyph-name="n" horiz-adv-x="604" d="M88 0T82 6T75 23V497Q75 507 81 513T98 520H141Q152 520 158 514T164 497V453Q194 490 233 510T332 530Q428 530 481 469T534 306V23Q534 13 528 7T511 0H465Q455 0 449 6T442 23V300Q442 372 407 412T307
452Q243 452 205 412T167 300V23Q167 13 161 7T144 0H98Q88 0 82 6Z" />
<glyph unicode="o" glyph-name="o" horiz-adv-x="572" d="M176 -10T117 52T53 217L52 260L53 303Q57 406 117 468T286 530Q394 530 454 468T519 303Q521 281 521 260Q521 239 519 217Q515 114 456 52T286 -10Q176 -10 117 52ZM350 65T387 105T428 222Q429 232
429 260Q429 288 428 298Q425 374 388 414T286 455Q222 455 185 415T144 298L143 260L144 222Q147 146 184 106T286 65Q350 65 387 105Z" />
<glyph unicode="p" glyph-name="p" horiz-adv-x="594" d="M89 -190T83 -184T76 -167V497Q76 508 82 514T99 520H141Q152 520 158 514T164 497V453Q222 530 329 530Q434 530 486 464T542 294Q543 283 543 260Q543 237 542 226Q539 124 487 57T329 -10Q222 -10 167
66V-167Q167 -177 161 -183T144 -190H99Q89 -190 83 -184ZM382 68T415 113T451 231Q452 241 452 260Q452 452 310 452Q240 452 205 406T167 296Q166 285 166 257Q166 229 167 218Q169 157 205 113T310 68Q382 68 415 113Z" />
<glyph unicode="q" glyph-name="q" horiz-adv-x="594" d="M441 -190T435 -184T428 -167V66Q371 -10 266 -10Q161 -10 108 57T52 226L51 260L52 294Q56 397 108 463T266 530Q374 530 430 453V497Q430 507 436 513T453 520H496Q506 520 512 514T519 497V-167Q519
-177 513 -183T496 -190H451Q441 -190 435 -184ZM353 68T389 112T428 218Q429 229 429 257Q429 285 428 296Q425 360 390 406T285 452Q213 452 180 407T144 289L143 260Q143 68 285 68Q353 68 389 112Z" />
<glyph unicode="r" glyph-name="r" horiz-adv-x="376" d="M88 0T82 6T75 23V496Q75 506 81 513T98 520H140Q151 520 157 514T164 496V452Q205 520 303 520H342Q353 520 359 514T365 497V460Q365 450 359 444T342 437H285Q230 437 199 405T167 318V23Q167 13 160
7T143 0H98Q88 0 82 6Z" />
<glyph unicode="s" glyph-name="s" horiz-adv-x="508" d="M184 -10T137 12T66 64T43 112Q43 122 50 127T65 133H107Q113 133 116 131T126 122Q149 94 177 78T254 62Q308 62 340 82T373 140Q373 165 359 180T313 207T216 233Q129 252 93 288T57 381Q57 418 79 452T144
508T248 530Q311 530 355 509T422 460T445 413Q445 404 439 398T423 392H385Q371 392 365 403Q348 422 337 432T303 450T248 458Q199 458 173 438T147 383Q147 362 158 348T200 321T292 295Q387 275 426 238T466 143Q466 100 442 65T369 10T253 -10Q184 -10 137
12Z" />
<glyph unicode="t" glyph-name="t" horiz-adv-x="388" d="M120 0T120 175V443H41Q31 443 25 449T19 465V497Q19 507 25 513T41 520H120V687Q120 697 126 703T142 710H186Q196 710 202 704T209 687V520H333Q343 520 349 514T356 497V465Q356 455 350 449T333 443H209V182Q209
131 225 105T282 79H343Q353 79 359 73T365 56V23Q365 13 359 7T343 0H275Q120 0 120 175Z" />
<glyph unicode="u" glyph-name="u" horiz-adv-x="600" d="M174 -10T122 51T70 215V497Q70 507 76 513T93 520H139Q149 520 155 514T162 497V220Q162 68 294 68Q358 68 395 108T433 220V497Q433 507 439 513T456 520H502Q512 520 518 514T525 497V23Q525 13 519
7T502 0H459Q449 0 443 6T436 23V68Q407 29 368 10T269 -10Q174 -10 122 51Z" />
<glyph unicode="v" glyph-name="v" horiz-adv-x="552" d="M230 0T219 25L33 489Q32 492 32 499Q32 508 38 514T52 520H98Q114 520 122 504L276 105L430 504Q432 510 438 515T454 520H500Q508 520 514 514T520 499L518 489L333 25Q322 0 296 0H256Q230 0 219 25Z" />
<glyph unicode="w" glyph-name="w" horiz-adv-x="800" d="M199 0T192 6T181 25L39 489L37 499Q37 508 43 514T58 520H99Q109 520 115 515T123 504L236 122L356 499Q358 507 365 513T384 520H416Q428 520 435 514T444 499L564 122L677 504Q678 509 684 514T701
520H742Q751 520 757 514T763 499L761 489L619 25Q615 12 608 6T587 0H551Q525 0 517 25L400 387L283 25Q275 0 249 0H213Q199 0 192 6Z" />
<glyph unicode="x" glyph-name="x" horiz-adv-x="537" d="M42 0T36 6T30 21Q30 30 37 40L211 266L48 481Q40 492 40 499Q40 508 46 514T61 520H109Q124 520 135 504L270 329L405 504Q411 512 416 516T431 520H477Q485 520 491 514T497 500Q497 490 490 481L325
264L499 40Q506 30 506 21Q506 12 500 6T485 0H436Q421 0 410 15L267 200L124 15Q118 8 113 4T98 0H51Q42 0 36 6Z" />
<glyph unicode="y" glyph-name="y" horiz-adv-x="549" d="M157 -190T151 -184T145 -170Q145 -167 150 -152L228 31L37 482Q31 494 31 499Q32 508 38 514T52 520H98Q114 520 122 504L276 136L434 504Q442 520 458 520H503Q511 520 517 514T523 500Q523 493 518
482L235 -174Q230 -182 225 -186T210 -190H166Q157 -190 151 -184Z" />
<glyph unicode="z" glyph-name="z" horiz-adv-x="507" d="M54 0T48 6T41 23V56Q41 64 45 72T55 88L334 443H73Q63 443 57 449T51 466V497Q51 507 57 513T73 520H427Q437 520 443 514T450 497V462Q450 451 436 431L161 77H447Q458 77 464 71T470 54V23Q470 13 464
7T447 0H64Q54 0 48 6Z" />
<glyph unicode="{" glyph-name="braceleft" horiz-adv-x="366" d="M236 -159T194 -126T134 -31T117 131Q117 182 104 210T62 258L55 262Q41 270 36 278T30 300V318Q30 331 35 339T55 356L63 361Q92 380 104 408T117 487Q117 586 133 648T192 743T312 776H317Q327
776 333 770T339 754V720Q339 710 333 704T318 698H313Q265 697 242 674T211 604T203 468Q203 351 129 309Q203 267 203 150Q203 61 210 14T241 -56T313 -80H318Q327 -81 333 -87T339 -102V-137Q339 -147 333 -153T317 -159H312Q236 -159 194 -126Z" />
<glyph unicode="|" glyph-name="bar" horiz-adv-x="231" d="M87 -208T81 -202T75 -185V873Q75 883 81 889T97 896H134Q144 896 150 890T157 873V-185Q157 -195 151 -201T134 -208H97Q87 -208 81 -202Z" />
<glyph unicode="}" glyph-name="braceright" horiz-adv-x="366" d="M129 776T172 743T231 648T248 486Q248 435 261 407T304 359L311 355Q325 347 330 339T336 318V299Q336 287 331 279T311 261L303 257Q274 237 261 209T248 130Q248 31 232 -31T173 -126T54 -159H48Q39
-159 33 -153T26 -137V-102Q26 -93 32 -87T48 -80H53Q101 -79 124 -56T155 14T163 150Q163 266 237 308Q163 350 163 467Q163 555 156 602T125 673T53 697L48 698Q39 698 33 704T26 720V754Q26 764 32 770T48 776H53Q129 776 172 743Z" />
<glyph unicode="~" glyph-name="asciitilde" horiz-adv-x="561" d="M82 242T78 247T73 262V299Q73 313 88 327T129 350T183 359Q212 359 234 354T289 340Q318 331 337 327T380 322Q401 322 416 328T442 342T457 353Q467 357 471 357Q489 357 489 337V300Q489 286
474 273T433 250T379 241Q351 241 329 245T277 259Q250 268 229 272T182 277Q160 277 145 271T120 257T105 247Q97 242 90 242Q82 242 78 247Z" />
<glyph unicode="&#xa0;" glyph-name="uni00A0" horiz-adv-x="246" />
<glyph unicode="&#xa1;" glyph-name="exclamdown" horiz-adv-x="235" d="M158 519T164 513T171 496V435Q171 425 165 419T148 412H88Q78 412 71 418T64 435V496Q64 506 71 512T88 519H148Q158 519 164 513ZM150 355T156 349T162 332V-158Q162 -169 156 -175T139
-181H96Q86 -181 80 -175T73 -158V332Q73 342 79 348T96 355H139Q150 355 156 349Z" />
<glyph unicode="&#xa2;" glyph-name="cent" d="M251 -100T245 -94T238 -77V-6Q154 5 106 64T56 220L55 260L56 300Q58 396 106 455T238 526V587Q238 598 244 604T261 610H299Q309 610 315 604T322 587V527Q386 519 428 490T489 426T508 363Q508 354 501 348T485
342H441Q431 342 426 346T416 363Q382 453 281 453Q223 453 187 414T147 295L146 260L147 225Q150 145 186 106T281 67Q330 67 364 88T416 157Q421 169 426 173T441 178H485Q494 178 501 172T508 157Q508 129 489 94T428 29T322 -7V-77Q322 -87 316 -93T299 -100H261Q251
-100 245 -94Z" />
<glyph unicode="&#xa3;" glyph-name="sterling" horiz-adv-x="675" d="M417 -6T385 9T312 55Q279 79 259 89T213 100Q174 100 158 80T133 19Q132 11 128 6T113 0H69Q60 0 55 5T50 19Q52 85 83 124T166 176Q165 209 154 269Q153 280 149 304H73Q63 304 57 310T50
327V359Q50 369 56 375T73 382H137Q134 415 134 454Q134 568 194 639T372 711Q447 711 501 682T583 602T614 490Q614 481 608 475T593 468H544Q535 468 528 474T518 490Q493 629 371 629Q303 629 267 581T230 453Q230 415 233 382H428Q438 382 444 376T451 359V327Q451
317 445 311T428 304H242Q254 220 256 174Q284 169 306 156T358 121Q387 98 407 87T454 76Q494 76 512 97T539 161Q540 166 545 172T557 178H600Q609 178 614 173T619 159Q618 81 574 38T461 -6Q417 -6 385 9Z" />
<glyph unicode="&#xa4;" glyph-name="currency" horiz-adv-x="587" d="M73 102Q66 111 66 118Q66 127 73 134L116 177Q77 230 77 300Q77 369 116 424L73 466Q66 475 66 483Q66 490 73 499L95 521Q102 528 111 528Q121 528 127 521L170 477Q226 517 294 517Q361
517 417 477L460 521Q467 528 476 528Q486 528 492 521L515 499Q522 492 522 483Q522 473 515 466L471 424Q510 367 510 300Q510 232 471 177L515 134Q522 128 522 118Q522 109 515 102L492 79Q485 72 476 72Q469 72 460 79L417 123Q363 83 294 83Q224 83 170 123L127
79Q120 72 111 72Q104 72 95 79L73 102ZM332 160T364 179T415 230T434 300Q434 338 415 370T364 421T294 440Q256 440 224 422T173 371T154 300Q154 262 172 230T223 179T294 160Q332 160 364 179Z" />
<glyph unicode="&#xa5;" glyph-name="yen" horiz-adv-x="613" d="M580 675T576 667L373 315H497Q507 315 513 309T520 292V259Q520 249 514 243T497 236H354V186H497Q507 186 513 180T520 164V131Q520 121 514 115T497 108H354V23Q354 13 348 7T331 0H282Q272
0 266 6T259 23V108H116Q106 108 100 114T94 131V164Q94 174 100 180T116 186H259V236H116Q106 236 100 242T94 259V292Q94 302 100 308T116 315H240L38 667Q34 675 34 680Q34 688 40 694T54 700H104Q122 700 130 683L307 380L483 683Q493 700 510 700H559Q567
700 573 694T580 680Q580 675 576 667Z" />
<glyph unicode="&#xa6;" glyph-name="brokenbar" horiz-adv-x="237" d="M90 475T84 481T77 498V806Q77 816 83 822T100 829H137Q147 829 153 823T160 806V498Q160 488 154 482T137 475H100Q90 475 84 481ZM90 0T84 6T77 23V331Q77 341 83 347T100 354H137Q147
354 153 348T160 331V23Q160 13 154 7T137 0H100Q90 0 84 6Z" />
<glyph unicode="&#xa7;" glyph-name="section" horiz-adv-x="567" d="M212 -140T166 -119T96 -66T71 -2V0Q71 8 77 13T93 18H135Q144 18 150 14T160 -1Q171 -31 196 -49T277 -67Q329 -67 356 -41T383 25Q383 53 372 69T334 97T250 126Q173 149 129 174T64 235T43
324Q43 398 119 456Q95 487 95 541Q95 585 117 623T183 686T289 710Q355 710 401 689T471 636T496 573V571Q496 562 490 557T474 552H432Q423 552 417 556T407 571Q396 601 371 619T290 637Q238 637 211 611T184 545Q184 517 195 501T233 473T317 444Q394 421 438
396T503 335T524 246Q524 172 448 115Q472 83 472 29Q472 -15 450 -53T384 -116T278 -140Q212 -140 166 -119ZM411 181T425 199T439 245Q439 274 427 294T382 333T286 370Q227 386 186 407Q156 389 142 371T128 326Q128 297 140 277T185 238T281 200Q338 183 381
163Q411 181 425 199Z" />
<glyph unicode="&#xa8;" glyph-name="dieresis" horiz-adv-x="398" d="M79 622T73 628T67 644V696Q67 706 73 712T89 719H141Q151 719 157 713T164 696V644Q164 634 158 628T141 622H89Q79 622 73 628ZM246 622T240 628T234 644V696Q234 706 240 712T256 719H309Q319
719 325 713T332 696V644Q332 634 326 628T309 622H256Q246 622 240 628Z" />
<glyph unicode="&#xa9;" glyph-name="copyright" horiz-adv-x="827" d="M316 -10T234 38T103 169T54 350Q54 448 102 530T233 661T414 710Q512 710 594 662T725 531T774 350Q774 252 726 170T595 39T414 -10Q316 -10 234 38ZM494 52T561 92T667 201T707 350Q707
430 668 498T561 607T414 648Q334 648 267 608T160 499T120 350Q120 270 159 202T266 93T414 52Q494 52 561 92ZM340 158T296 203T249 316L248 351L249 386Q252 454 296 499T414 544Q466 544 502 527T557 485T576 433Q576 423 570 417T554 411H523Q514 411 509
416T500 431Q491 454 471 466T414 478Q366 478 346 451T323 385L322 351L323 317Q325 279 345 252T414 224Q450 224 470 236T500 271Q504 281 509 286T523 291H554Q564 291 570 285T576 269Q575 243 557 218T503 175T414 158Q340 158 296 203Z" />
<glyph unicode="&#xaa;" glyph-name="ordfeminine" horiz-adv-x="364" d="M103 429T78 451T52 506Q52 544 82 568T165 601L227 610Q227 645 182 645Q162 645 152 640T139 633Q127 625 118 625H89Q81 625 75 629T69 640Q69 651 84 667T125 694T185 705Q238 705
268 676T298 597V455Q298 446 292 440T277 434H248Q239 434 233 440T227 455V463Q219 449 196 439T146 429Q103 429 78 451ZM194 487T210 506T227 557L183 550Q148 544 136 534T123 509Q123 499 133 493T160 487Q194 487 210 506Z" />
<glyph unicode="&#xab;" glyph-name="guillemotleft" horiz-adv-x="608" d="M267 85T252 96L59 283Q45 297 43 317V341Q45 361 59 375L252 562Q265 573 274 573Q283 573 289 567T295 552V515Q295 503 291 495T277 477L124 329L277 181Q287 171 291 164T295 143V106Q295
97 289 91T274 85Q267 85 252 96ZM523 85T508 96L315 283Q299 299 299 317V341Q299 359 315 375L508 562Q521 573 530 573Q539 573 545 567T551 552V515Q551 503 547 495T533 477L380 329L533 181Q543 171 547 164T551 143V106Q551 97 545 91T530 85Q523 85 508
96Z" />
<glyph unicode="&#xac;" glyph-name="logicalnot" horiz-adv-x="578" d="M439 151T433 157T426 173V273H93Q83 273 77 279T70 296V327Q70 337 76 343T93 350H483Q494 350 500 344T506 327V173Q506 163 500 157T483 151H449Q439 151 433 157Z" />
<glyph unicode="&#xad;" glyph-name="uni00AD" horiz-adv-x="250" />
<glyph unicode="&#xae;" glyph-name="registered" horiz-adv-x="827" d="M316 -10T234 38T103 169T54 350Q54 448 102 530T233 661T414 710Q512 710 594 662T725 531T774 350Q774 252 726 170T595 39T414 -10Q316 -10 234 38ZM494 52T561 92T667 201T707 350Q707
430 668 498T561 607T414 648Q334 648 267 608T160 499T120 350Q120 270 159 202T266 93T414 52Q494 52 561 92ZM288 168T282 174T276 190V512Q276 522 282 528T298 534H429Q492 534 530 506T569 417Q569 378 550 352T499 312L564 204Q568 198 568 190Q568 181
563 175T546 168H520Q502 168 491 187L426 299H348V190Q348 180 342 174T326 168H298Q288 168 282 174ZM427 364Q495 364 495 417Q495 440 480 455T427 470H348V364H427Z" />
<glyph unicode="&#xaf;" glyph-name="overscore" horiz-adv-x="398" d="M79 618T73 624T67 640V669Q67 679 73 685T89 691H309Q319 691 325 685T331 669V640Q331 630 325 624T309 618H89Q79 618 73 624Z" />
<glyph unicode="&#xb0;" glyph-name="degree" horiz-adv-x="387" d="M153 428T120 446T67 497T47 569Q47 609 66 641T119 691T193 710Q233 710 266 692T319 641T339 569Q339 530 320 498T267 447T193 428Q153 428 120 446ZM227 493T248 514T269 569Q269 603 248
624T193 645Q159 645 138 624T117 569Q117 535 138 514T193 493Q227 493 248 514Z" />
<glyph unicode="&#xb1;" glyph-name="plusminus" horiz-adv-x="559" d="M253 192T247 198T240 215V370H87Q77 370 71 376T64 393V423Q64 433 70 439T87 445H240V596Q240 606 246 612T263 619H297Q307 619 313 613T320 596V445H473Q483 445 489 439T495 423V393Q495
383 489 377T473 370H320V215Q320 205 314 199T297 192H263Q253 192 247 198ZM87 0T81 6T74 23V53Q74 63 80 69T97 76H463Q473 76 479 70T485 53V23Q485 13 479 7T463 0H97Q87 0 81 6Z" />
<glyph unicode="&#xb2;" glyph-name="uni00B2" horiz-adv-x="341" d="M42 350T36 356T30 372V393Q30 401 35 408T54 427L100 460Q153 497 177 516T213 554T226 593Q226 616 210 629T169 643Q147 643 135 636T119 624T108 604Q102 593 97 590T84 586H57Q39 586
39 603Q39 629 57 652T104 690T169 705Q226 705 261 673T296 594Q296 559 281 533T235 481T145 414H289Q299 414 305 408T311 392V372Q311 362 305 356T289 350H52Q42 350 36 356Z" />
<glyph unicode="&#xb3;" glyph-name="uni00B3" horiz-adv-x="341" d="M100 345T65 369T27 428V430Q27 437 33 442T44 447H69Q82 447 94 435Q97 432 104 425T126 413T164 408Q195 408 215 420T235 453Q235 477 218 487T169 498H128Q118 498 112 504T106 520V539Q106
549 118 561L199 635H65Q55 635 49 641T43 657V678Q43 688 49 694T65 700H270Q280 700 286 694T292 678V659Q292 648 289 640T276 623L204 558Q255 554 280 526T306 453Q306 402 269 374T165 345Q100 345 65 369Z" />
<glyph unicode="&#xb4;" glyph-name="acute" horiz-adv-x="334" d="M67 595T67 611Q67 619 72 624L146 714Q156 725 163 728T183 732H248Q267 732 267 713Q267 706 262 701L147 606Q139 599 132 597T114 595H83Q67 595 67 611Z" />
<glyph unicode="&#xb5;" glyph-name="uni00B5" horiz-adv-x="605" d="M85 -200T79 -194T72 -177V497Q72 507 78 513T95 520H142Q152 520 158 514T165 497V220Q165 174 185 140T236 87T303 68Q338 68 369 86T421 139T441 220V497Q441 507 447 513T464 520H510Q520
520 526 514T533 497V23Q533 13 527 7T510 0H467Q457 0 451 6T444 23V68Q417 33 383 14T299 -5Q254 -5 223 11T165 58V-177Q165 -187 159 -193T142 -200H95Q85 -200 79 -194Z" />
<glyph unicode="&#xb6;" glyph-name="paragraph" horiz-adv-x="527" d="M224 -100T218 -94T211 -77V339Q162 339 121 363T55 429T31 520Q31 569 55 610T120 676T211 700H427Q437 700 443 694T450 677V-77Q450 -87 444 -93T427 -100H393Q383 -100 377 -94T370 -77V627H291V-77Q291
-87 285 -93T268 -100H234Q224 -100 218 -94Z" />
<glyph unicode="&#xb7;" glyph-name="middot" horiz-adv-x="330" d="M121 202T90 233T58 308Q58 352 89 383T165 415Q209 415 240 384T272 308Q272 264 241 233T165 202Q121 202 90 233Z" />
<glyph unicode="&#xb8;" glyph-name="cedilla" horiz-adv-x="314" d="M120 -220T94 -206T67 -177Q67 -172 71 -169L86 -155Q90 -151 95 -151Q99 -151 109 -157T128 -167T152 -171Q170 -171 181 -161T193 -133Q193 -117 182 -108T152 -98Q141 -98 127 -102T107
-107Q98 -107 93 -101L76 -83Q73 -79 73 -74Q73 -69 80 -53L115 27H175L134 -56Q147 -48 170 -48Q204 -48 225 -71T247 -132Q247 -170 223 -195T154 -220Q120 -220 94 -206Z" />
<glyph unicode="&#xb9;" glyph-name="uni00B9" horiz-adv-x="242" d="M136 350T130 356T124 372V612L64 567Q59 563 51 563Q41 563 33 572L21 588Q16 595 16 602Q16 612 25 619L124 693Q134 700 147 700H173Q183 700 189 694T195 678V372Q195 362 189 356T173
350H146Q136 350 130 356Z" />
<glyph unicode="&#xba;" glyph-name="ordmasculine" horiz-adv-x="359" d="M124 429T91 457T55 540L54 567L55 594Q58 648 92 676T180 705Q233 705 267 677T305 594Q306 589 306 567Q306 545 305 540Q302 485 270 457T180 429Q124 429 91 457ZM230 491T233 545Q234
550 234 567Q234 584 233 589Q231 614 218 628T180 643Q155 643 142 629T127 589L126 567L127 545Q130 491 180 491Q230 491 233 545Z" />
<glyph unicode="&#xbb;" glyph-name="guillemotright" horiz-adv-x="608" d="M69 85T63 91T57 106V143Q57 156 61 163T75 181L228 329L75 477Q65 487 61 495T57 515V552Q57 561 63 567T78 573Q87 573 100 562L293 375Q309 359 309 341V317Q309 299 293 283L100
96Q85 85 78 85Q69 85 63 91ZM325 85T319 91T313 106V143Q313 156 317 163T331 181L484 329L331 477Q321 487 317 495T313 515V552Q313 561 319 567T334 573Q343 573 356 562L549 375Q563 361 565 341V317Q563 297 549 283L356 96Q341 85 334 85Q325 85 319 91Z"
/>
<glyph unicode="&#xbc;" glyph-name="onequarter" horiz-adv-x="729" d="M136 350T130 356T124 372V612L64 567Q59 563 51 563Q41 563 33 572L21 588Q16 595 16 602Q16 612 25 619L124 693Q134 700 147 700H173Q183 700 189 694T195 678V372Q195 362 189 356T173
350H146Q136 350 130 356ZM44 0T39 5T33 20Q33 26 37 31L530 681Q538 692 544 696T563 700H590Q599 700 605 695T611 680Q611 674 607 669L113 19Q105 9 99 5T80 0H53Q44 0 39 5ZM560 -2T554 4T548 20V68H401Q391 68 385 74T379 90V112Q379 126 391 142L526 330Q539
348 556 348H596Q606 348 612 342T618 326V133H653Q663 133 669 127T675 111V90Q675 80 669 74T653 68H618V20Q618 10 612 4T596 -2H570Q560 -2 554 4ZM462 132H549V257L462 132Z" />
<glyph unicode="&#xbd;" glyph-name="onehalf" horiz-adv-x="736" d="M136 350T130 356T124 372V612L64 567Q59 563 51 563Q41 563 33 572L21 588Q16 595 16 602Q16 612 25 619L124 693Q134 700 147 700H173Q183 700 189 694T195 678V372Q195 362 189 356T173
350H146Q136 350 130 356ZM44 0T39 5T33 20Q33 26 37 31L530 681Q538 692 544 696T563 700H590Q599 700 605 695T611 680Q611 674 607 669L113 19Q105 9 99 5T80 0H53Q44 0 39 5ZM407 0T401 6T395 22V43Q395 51 400 58T419 77L465 110Q518 147 542 166T578 204T591
243Q591 266 575 279T534 293Q512 293 500 286T484 274T473 254Q467 243 462 240T449 236H422Q404 236 404 253Q404 279 422 302T469 340T534 355Q591 355 626 323T661 244Q661 209 646 183T600 131T510 64H654Q664 64 670 58T676 42V22Q676 12 670 6T654 0H417Q407
0 401 6Z" />
<glyph unicode="&#xbe;" glyph-name="threequarters" horiz-adv-x="812" d="M100 345T65 369T27 428V430Q27 437 33 442T44 447H69Q82 447 94 435Q97 432 104 425T126 413T164 408Q195 408 215 420T235 453Q235 477 218 487T169 498H128Q118 498 112 504T106 520V539Q106
549 118 561L199 635H65Q55 635 49 641T43 657V678Q43 688 49 694T65 700H270Q280 700 286 694T292 678V659Q292 648 289 640T276 623L204 558Q255 554 280 526T306 453Q306 402 269 374T165 345Q100 345 65 369ZM143 0T138 5T132 20Q132 26 136 31L629 681Q637
692 643 696T662 700H689Q698 700 704 695T710 680Q710 674 706 669L212 19Q204 9 198 5T179 0H152Q143 0 138 5ZM661 -2T655 4T649 20V68H502Q492 68 486 74T480 90V112Q480 126 492 142L627 330Q640 348 657 348H697Q707 348 713 342T719 326V133H754Q764 133
770 127T776 111V90Q776 80 770 74T754 68H719V20Q719 10 713 4T697 -2H671Q661 -2 655 4ZM563 132H650V257L563 132Z" />
<glyph unicode="&#xbf;" glyph-name="questiondown" horiz-adv-x="522" d="M300 520T306 514T313 497V439Q313 429 307 422T290 415H228Q218 415 211 422T204 439V497Q204 507 211 513T228 520H290Q300 520 306 514ZM291 359T297 353T303 337V296Q301 243 276
204T203 117Q167 80 150 56T129 4Q128 0 128 -9Q128 -55 167 -82T258 -109Q314 -109 351 -80T400 13Q404 35 426 35H470Q479 35 485 29T492 13Q490 -42 461 -88T378 -162T255 -190Q182 -190 132 -165T58 -100T34 -14Q34 37 57 74T126 160Q164 201 183 229T205 293Q207
321 207 335Q212 359 232 359H281Q291 359 297 353Z" />
<glyph unicode="&#xc0;" glyph-name="Agrave" horiz-adv-x="668" d="M32 0T26 6T20 20L22 31L270 678Q278 700 302 700H366Q390 700 398 678L646 31L648 20Q648 12 642 6T627 0H580Q570 0 564 5T555 17L499 161H168L113 17Q105 0 88 0H40Q32 0 26 6ZM197 244H471L334
603L197 244ZM319 750T312 752T297 761L182 856Q177 861 177 868Q177 887 196 887H267Q280 887 287 884T304 869L378 779Q383 774 383 766Q383 750 367 750H330Q319 750 312 752Z" />
<glyph unicode="&#xc1;" glyph-name="Aacute" horiz-adv-x="668" d="M32 0T26 6T20 20L22 31L270 678Q278 700 302 700H366Q390 700 398 678L646 31L648 20Q648 12 642 6T627 0H580Q570 0 564 5T555 17L499 161H168L113 17Q105 0 88 0H40Q32 0 26 6ZM197 244H471L334
603L197 244ZM293 750T293 766Q293 774 298 779L372 869Q382 880 389 883T409 887H480Q499 887 499 868Q499 861 494 856L379 761Q371 754 364 752T346 750H309Q293 750 293 766Z" />
<glyph unicode="&#xc2;" glyph-name="Acircumflex" horiz-adv-x="668" d="M32 0T26 6T20 20L22 31L270 678Q278 700 302 700H366Q390 700 398 678L646 31L648 20Q648 12 642 6T627 0H580Q570 0 564 5T555 17L499 161H168L113 17Q105 0 88 0H40Q32 0 26 6ZM197
244H471L334 603L197 244ZM184 750T184 762Q184 771 195 781L286 872Q296 882 302 884T319 887H349Q358 887 365 885T381 872L473 781Q483 771 483 762Q483 750 469 750H443Q426 750 416 757L334 814L252 757Q240 750 224 750H198Q184 750 184 762Z" />
<glyph unicode="&#xc3;" glyph-name="Atilde" horiz-adv-x="668" d="M32 0T26 6T20 20L22 31L270 678Q278 700 302 700H366Q390 700 398 678L646 31L648 20Q648 12 642 6T627 0H580Q570 0 564 5T555 17L499 161H168L113 17Q105 0 88 0H40Q32 0 26 6ZM197 244H471L334
603L197 244ZM368 745T355 750T323 765Q314 770 304 774T285 779Q277 779 272 775T262 764Q254 750 243 750H212Q205 750 201 755T196 766Q196 799 219 828T280 858Q298 858 312 853T343 837Q352 832 362 828T381 823Q390 823 394 827T404 839Q409 847 413 850T424
853H455Q462 853 466 848T471 837Q471 817 460 796T430 760T386 745Q368 745 355 750Z" />
<glyph unicode="&#xc4;" glyph-name="Adieresis" horiz-adv-x="668" d="M32 0T26 6T20 20L22 31L270 678Q278 700 302 700H366Q390 700 398 678L646 31L648 20Q648 12 642 6T627 0H580Q570 0 564 5T555 17L499 161H168L113 17Q105 0 88 0H40Q32 0 26 6ZM197 244H471L334
603L197 244ZM199 750T193 756T187 772V825Q187 835 193 841T209 848H261Q271 848 277 842T284 825V772Q284 762 278 756T261 750H209Q199 750 193 756ZM396 750T390 756T384 772V825Q384 835 390 841T406 848H459Q469 848 475 842T482 825V772Q482 762 476 756T459
750H406Q396 750 390 756Z" />
<glyph unicode="&#xc5;" glyph-name="Aring" horiz-adv-x="668" d="M32 0T26 6T20 20L22 31L270 678Q278 700 302 700H366Q390 700 398 678L646 31L648 20Q648 12 642 6T627 0H580Q570 0 564 5T555 17L499 161H168L113 17Q105 0 88 0H40Q32 0 26 6ZM197 244H471L334
603L197 244ZM299 740T275 762T251 818Q251 852 275 874T334 897Q369 897 393 875T417 818Q417 785 393 763T334 740Q299 740 275 762ZM347 788T355 796T364 818Q364 831 356 839T334 848Q321 848 313 840T304 818Q304 805 312 797T334 788Q347 788 355 796Z" />
<glyph unicode="&#xc6;" glyph-name="AE" horiz-adv-x="934" d="M17 0T11 6T5 20Q5 23 6 27T8 33Q21 69 82 187T351 679Q361 700 380 700H851Q862 700 868 694T874 676V640Q874 630 868 624T851 618H515V395H829Q839 395 845 389T852 371V337Q852 327 846 321T829
314H515V83H859Q869 83 875 77T882 59V23Q882 13 876 7T859 0H445Q435 0 429 6T422 23V161H179Q101 22 100 17Q92 0 75 0H25Q17 0 11 6ZM216 244H422V612H416L216 244Z" />
<glyph unicode="&#xc7;" glyph-name="Ccedilla" horiz-adv-x="665" d="M302 -220T276 -206T249 -177Q249 -172 253 -169L268 -155Q272 -151 277 -151Q281 -151 291 -157T310 -167T334 -171Q352 -171 363 -161T375 -133Q375 -117 364 -108T334 -98Q323 -98 309
-102T289 -107Q280 -107 275 -101L259 -83Q255 -79 255 -74Q255 -69 262 -53L282 -6Q176 9 121 79T61 261Q60 288 60 349Q60 411 61 439Q66 565 135 637T338 710Q427 710 489 679T582 596T617 487Q617 478 611 473T595 467H545Q535 467 529 472T520 489Q503 566
459 597T338 628Q164 628 157 434Q156 407 156 351Q156 295 157 266Q164 73 338 73Q413 73 458 104T520 211Q523 223 529 228T545 233H595Q604 233 610 228T617 213Q614 155 583 104T489 22T338 -10L316 -56Q329 -48 352 -48Q386 -48 407 -71T429 -132Q429 -170
405 -195T336 -220Q302 -220 276 -206Z" />
<glyph unicode="&#xc8;" glyph-name="Egrave" horiz-adv-x="605" d="M100 0T94 6T88 23V676Q88 687 94 693T110 700H521Q532 700 538 694T545 676V640Q545 630 539 624T521 618H180V395H499Q510 395 516 389T523 371V337Q523 327 517 321T499 314H180V83H529Q540
83 546 77T553 59V23Q553 13 546 7T529 0H110Q100 0 94 6ZM287 750T280 752T265 761L150 856Q145 861 145 868Q145 887 164 887H235Q248 887 255 884T272 869L346 779Q351 774 351 766Q351 750 335 750H298Q287 750 280 752Z" />
<glyph unicode="&#xc9;" glyph-name="Eacute" horiz-adv-x="605" d="M100 0T94 6T88 23V676Q88 687 94 693T110 700H521Q532 700 538 694T545 676V640Q545 630 539 624T521 618H180V395H499Q510 395 516 389T523 371V337Q523 327 517 321T499 314H180V83H529Q540
83 546 77T553 59V23Q553 13 546 7T529 0H110Q100 0 94 6ZM261 750T261 766Q261 774 266 779L340 869Q350 880 357 883T377 887H448Q467 887 467 868Q467 861 462 856L347 761Q339 754 332 752T314 750H277Q261 750 261 766Z" />
<glyph unicode="&#xca;" glyph-name="Ecircumflex" horiz-adv-x="605" d="M100 0T94 6T88 23V676Q88 687 94 693T110 700H521Q532 700 538 694T545 676V640Q545 630 539 624T521 618H180V395H499Q510 395 516 389T523 371V337Q523 327 517 321T499 314H180V83H529Q540
83 546 77T553 59V23Q553 13 546 7T529 0H110Q100 0 94 6ZM152 750T152 762Q152 771 163 781L254 872Q264 882 270 884T287 887H317Q326 887 333 885T349 872L441 781Q451 771 451 762Q451 750 437 750H411Q394 750 384 757L302 814L220 757Q208 750 192 750H166Q152
750 152 762Z" />
<glyph unicode="&#xcb;" glyph-name="Edieresis" horiz-adv-x="605" d="M100 0T94 6T88 23V676Q88 687 94 693T110 700H521Q532 700 538 694T545 676V640Q545 630 539 624T521 618H180V395H499Q510 395 516 389T523 371V337Q523 327 517 321T499 314H180V83H529Q540
83 546 77T553 59V23Q553 13 546 7T529 0H110Q100 0 94 6ZM167 750T161 756T155 772V825Q155 835 161 841T177 848H229Q239 848 245 842T252 825V772Q252 762 246 756T229 750H177Q167 750 161 756ZM364 750T358 756T352 772V825Q352 835 358 841T374 848H427Q437
848 443 842T450 825V772Q450 762 444 756T427 750H374Q364 750 358 756Z" />
<glyph unicode="&#xcc;" glyph-name="Igrave" horiz-adv-x="271" d="M100 0T94 6T88 23V677Q88 687 94 693T110 700H160Q171 700 177 694T183 677V23Q183 13 177 7T160 0H110Q100 0 94 6ZM121 750T114 752T99 761L-16 856Q-21 861 -21 868Q-21 887 -2 887H69Q82
887 89 884T106 869L180 779Q185 774 185 766Q185 750 169 750H132Q121 750 114 752Z" />
<glyph unicode="&#xcd;" glyph-name="Iacute" horiz-adv-x="271" d="M100 0T94 6T88 23V677Q88 687 94 693T110 700H160Q171 700 177 694T183 677V23Q183 13 177 7T160 0H110Q100 0 94 6ZM95 750T95 766Q95 774 100 779L174 869Q184 880 191 883T211 887H282Q301
887 301 868Q301 861 296 856L181 761Q173 754 166 752T148 750H111Q95 750 95 766Z" />
<glyph unicode="&#xce;" glyph-name="Icircumflex" horiz-adv-x="271" d="M100 0T94 6T88 23V677Q88 687 94 693T110 700H160Q171 700 177 694T183 677V23Q183 13 177 7T160 0H110Q100 0 94 6ZM-14 750T-14 762Q-14 771 -3 781L88 872Q98 882 104 884T121 887H151Q160
887 167 885T183 872L275 781Q285 771 285 762Q285 750 271 750H245Q228 750 218 757L136 814L54 757Q42 750 26 750H0Q-14 750 -14 762Z" />
<glyph unicode="&#xcf;" glyph-name="Idieresis" horiz-adv-x="271" d="M100 0T94 6T88 23V677Q88 687 94 693T110 700H160Q171 700 177 694T183 677V23Q183 13 177 7T160 0H110Q100 0 94 6ZM1 750T-5 756T-11 772V825Q-11 835 -5 841T11 848H63Q73 848 79 842T86
825V772Q86 762 80 756T63 750H11Q1 750 -5 756ZM198 750T192 756T186 772V825Q186 835 192 841T208 848H261Q271 848 277 842T284 825V772Q284 762 278 756T261 750H208Q198 750 192 756Z" />
<glyph unicode="&#xd0;" glyph-name="Eth" horiz-adv-x="697" d="M109 0T103 6T97 23V314H38Q28 314 22 320T15 337V367Q15 377 21 383T38 390H97V676Q97 687 103 693T119 700H345Q496 700 563 633T632 429Q633 400 633 351Q633 301 632 272Q630 178 602 118T512
29T349 0H119Q109 0 103 6ZM345 83Q415 83 456 102T516 163T537 276V425Q535 525 490 571T341 618H191V390H325Q335 390 341 384T348 367V337Q348 327 342 321T325 314H191V83H345Z" />
<glyph unicode="&#xd1;" glyph-name="Ntilde" horiz-adv-x="693" d="M100 0T94 6T88 23V676Q88 687 94 693T110 700H154Q164 700 169 696T179 686L514 170V676Q514 687 520 693T537 700H582Q593 700 599 694T606 676V24Q606 14 600 7T583 0H538Q521 0 514 14L179
525V23Q179 13 173 7T156 0H110Q100 0 94 6ZM381 745T368 750T336 765Q327 770 317 774T298 779Q290 779 285 775T275 764Q267 750 256 750H225Q218 750 214 755T209 766Q209 799 232 828T293 858Q311 858 325 853T356 837Q365 832 375 828T394 823Q403 823 407
827T417 839Q422 847 426 850T437 853H468Q475 853 479 848T484 837Q484 817 473 796T443 760T399 745Q381 745 368 750Z" />
<glyph unicode="&#xd2;" glyph-name="Ograve" horiz-adv-x="675" d="M208 -10T137 58T62 265Q61 295 61 350Q61 405 62 434Q66 570 139 640T338 710Q463 710 536 640T613 434Q615 376 615 350Q615 325 613 265Q609 127 539 59T338 -10Q208 -10 137 58ZM418 73T466
121T518 270Q520 330 520 350Q520 372 518 430Q514 530 466 579T338 628Q258 628 210 579T158 430Q157 401 157 350Q157 300 158 270Q161 170 209 122T338 73Q418 73 466 121ZM323 750T316 752T301 761L186 856Q181 861 181 868Q181 887 200 887H271Q284 887 291
884T308 869L382 779Q387 774 387 766Q387 750 371 750H334Q323 750 316 752Z" />
<glyph unicode="&#xd3;" glyph-name="Oacute" horiz-adv-x="675" d="M208 -10T137 58T62 265Q61 295 61 350Q61 405 62 434Q66 570 139 640T338 710Q463 710 536 640T613 434Q615 376 615 350Q615 325 613 265Q609 127 539 59T338 -10Q208 -10 137 58ZM418 73T466
121T518 270Q520 330 520 350Q520 372 518 430Q514 530 466 579T338 628Q258 628 210 579T158 430Q157 401 157 350Q157 300 158 270Q161 170 209 122T338 73Q418 73 466 121ZM297 750T297 766Q297 774 302 779L376 869Q386 880 393 883T413 887H484Q503 887 503
868Q503 861 498 856L383 761Q375 754 368 752T350 750H313Q297 750 297 766Z" />
<glyph unicode="&#xd4;" glyph-name="Ocircumflex" horiz-adv-x="675" d="M208 -10T137 58T62 265Q61 295 61 350Q61 405 62 434Q66 570 139 640T338 710Q463 710 536 640T613 434Q615 376 615 350Q615 325 613 265Q609 127 539 59T338 -10Q208 -10 137 58ZM418
73T466 121T518 270Q520 330 520 350Q520 372 518 430Q514 530 466 579T338 628Q258 628 210 579T158 430Q157 401 157 350Q157 300 158 270Q161 170 209 122T338 73Q418 73 466 121ZM188 750T188 762Q188 771 199 781L290 872Q300 882 306 884T323 887H353Q362
887 369 885T385 872L477 781Q487 771 487 762Q487 750 473 750H447Q430 750 420 757L338 814L256 757Q244 750 228 750H202Q188 750 188 762Z" />
<glyph unicode="&#xd5;" glyph-name="Otilde" horiz-adv-x="675" d="M208 -10T137 58T62 265Q61 295 61 350Q61 405 62 434Q66 570 139 640T338 710Q463 710 536 640T613 434Q615 376 615 350Q615 325 613 265Q609 127 539 59T338 -10Q208 -10 137 58ZM418 73T466
121T518 270Q520 330 520 350Q520 372 518 430Q514 530 466 579T338 628Q258 628 210 579T158 430Q157 401 157 350Q157 300 158 270Q161 170 209 122T338 73Q418 73 466 121ZM372 745T359 750T327 765Q318 770 308 774T289 779Q281 779 276 775T266 764Q258 750
247 750H216Q209 750 205 755T200 766Q200 799 223 828T284 858Q302 858 316 853T347 837Q356 832 366 828T385 823Q394 823 398 827T408 839Q413 847 417 850T428 853H459Q466 853 470 848T475 837Q475 817 464 796T434 760T390 745Q372 745 359 750Z" />
<glyph unicode="&#xd6;" glyph-name="Odieresis" horiz-adv-x="675" d="M208 -10T137 58T62 265Q61 295 61 350Q61 405 62 434Q66 570 139 640T338 710Q463 710 536 640T613 434Q615 376 615 350Q615 325 613 265Q609 127 539 59T338 -10Q208 -10 137 58ZM418
73T466 121T518 270Q520 330 520 350Q520 372 518 430Q514 530 466 579T338 628Q258 628 210 579T158 430Q157 401 157 350Q157 300 158 270Q161 170 209 122T338 73Q418 73 466 121ZM203 750T197 756T191 772V825Q191 835 197 841T213 848H265Q275 848 281 842T288
825V772Q288 762 282 756T265 750H213Q203 750 197 756ZM400 750T394 756T388 772V825Q388 835 394 841T410 848H463Q473 848 479 842T486 825V772Q486 762 480 756T463 750H410Q400 750 394 756Z" />
<glyph unicode="&#xd7;" glyph-name="multiply" horiz-adv-x="557" d="M69 152Q62 159 62 169Q62 178 69 185L216 332L69 481Q62 488 62 497Q62 507 69 513L99 543Q106 550 115 550Q124 550 131 543L278 394L427 543Q434 550 443 550Q453 550 459 543L489 513Q496
507 496 497Q496 488 489 481L341 332L489 185Q496 178 496 169Q496 160 489 153L459 123Q453 116 443 116Q434 116 427 123L278 270L131 122Q122 115 115 115Q108 115 99 122L69 152Z" />
<glyph unicode="&#xd8;" glyph-name="Oslash" horiz-adv-x="698" d="M113 -10T81 211L43 197Q35 194 31 194Q11 194 11 212V246Q11 258 15 263T33 273L74 288Q73 307 73 344Q73 370 75 434Q79 570 152 640T351 710Q458 710 527 657T617 500L655 514Q663 517 667
517Q687 517 687 499V465Q687 454 683 449T665 439L626 424Q628 368 628 344Q628 321 626 265Q622 127 552 59T351 -10Q113 -10 81 211ZM527 465Q516 547 470 587T351 628Q271 628 223 579T171 430Q168 367 169 326L527 465ZM431 73T479 121T530 270Q531 302 531
353V387L172 247Q181 158 228 116T351 73Q431 73 479 121Z" />
<glyph unicode="&#xd9;" glyph-name="Ugrave" horiz-adv-x="700" d="M222 -10T152 59T82 270V676Q82 687 88 693T104 700H152Q163 700 169 694T176 676V268Q176 170 221 122T351 74Q434 74 479 122T525 268V676Q525 687 531 693T548 700H596Q606 700 612 694T619
676V270Q619 129 550 60T351 -10Q222 -10 152 59ZM336 750T329 752T314 761L199 856Q194 861 194 868Q194 887 213 887H284Q297 887 304 884T321 869L395 779Q400 774 400 766Q400 750 384 750H347Q336 750 329 752Z" />
<glyph unicode="&#xda;" glyph-name="Uacute" horiz-adv-x="700" d="M222 -10T152 59T82 270V676Q82 687 88 693T104 700H152Q163 700 169 694T176 676V268Q176 170 221 122T351 74Q434 74 479 122T525 268V676Q525 687 531 693T548 700H596Q606 700 612 694T619
676V270Q619 129 550 60T351 -10Q222 -10 152 59ZM310 750T310 766Q310 774 315 779L389 869Q399 880 406 883T426 887H497Q516 887 516 868Q516 861 511 856L396 761Q388 754 381 752T363 750H326Q310 750 310 766Z" />
<glyph unicode="&#xdb;" glyph-name="Ucircumflex" horiz-adv-x="700" d="M222 -10T152 59T82 270V676Q82 687 88 693T104 700H152Q163 700 169 694T176 676V268Q176 170 221 122T351 74Q434 74 479 122T525 268V676Q525 687 531 693T548 700H596Q606 700 612
694T619 676V270Q619 129 550 60T351 -10Q222 -10 152 59ZM201 750T201 762Q201 771 212 781L303 872Q313 882 319 884T336 887H366Q375 887 382 885T398 872L490 781Q500 771 500 762Q500 750 486 750H460Q443 750 433 757L351 814L269 757Q257 750 241 750H215Q201
750 201 762Z" />
<glyph unicode="&#xdc;" glyph-name="Udieresis" horiz-adv-x="700" d="M222 -10T152 59T82 270V676Q82 687 88 693T104 700H152Q163 700 169 694T176 676V268Q176 170 221 122T351 74Q434 74 479 122T525 268V676Q525 687 531 693T548 700H596Q606 700 612 694T619
676V270Q619 129 550 60T351 -10Q222 -10 152 59ZM216 750T210 756T204 772V825Q204 835 210 841T226 848H278Q288 848 294 842T301 825V772Q301 762 295 756T278 750H226Q216 750 210 756ZM413 750T407 756T401 772V825Q401 835 407 841T423 848H476Q486 848 492
842T499 825V772Q499 762 493 756T476 750H423Q413 750 407 756Z" />
<glyph unicode="&#xdd;" glyph-name="Yacute" horiz-adv-x="645" d="M288 0T282 6T275 23V260L34 667Q31 673 31 680Q31 688 37 694T51 700H99Q117 700 125 683L323 356L520 683Q530 700 546 700H594Q602 700 608 694T615 680Q615 675 611 667L370 260V23Q370
13 364 7T346 0H298Q288 0 282 6ZM282 750T282 766Q282 774 287 779L361 869Q371 880 378 883T398 887H469Q488 887 488 868Q488 861 483 856L368 761Q360 754 353 752T335 750H298Q282 750 282 766Z" />
<glyph unicode="&#xde;" glyph-name="Thorn" horiz-adv-x="645" d="M100 0T94 6T88 23V677Q88 687 94 693T110 700H161Q171 700 177 694T183 677V564H363Q476 564 540 510T605 351Q605 247 541 193T363 139H183V23Q183 13 177 7T160 0H110Q100 0 94 6ZM358 220Q433
220 471 253T509 351Q509 415 472 449T358 483H183V220H358Z" />
<glyph unicode="&#xdf;" glyph-name="germandbls" horiz-adv-x="587" d="M89 0T83 6T76 23V494Q76 588 129 649T293 710Q367 710 415 683T487 614T510 524Q510 468 485 432T425 377Q539 338 539 204Q539 155 515 108T440 31T313 0H244Q234 0 227 6T220 23V54Q220
64 227 70T244 76H299Q369 76 408 113T447 206Q447 264 409 300T298 337H244Q233 337 227 343T220 360V388Q220 398 226 404T244 411H290Q422 412 422 522Q422 571 387 602T293 634Q234 634 200 598T165 491V23Q165 13 159 7T143 0H99Q89 0 83 6Z" />
<glyph unicode="&#xe0;" glyph-name="agrave" horiz-adv-x="550" d="M170 -10T129 10T63 64T38 141Q38 207 92 249T239 305L389 326V355Q389 458 270 458Q224 458 196 440T155 396Q151 386 147 383T134 379H95Q86 379 80 385T73 401Q73 424 94 454T161 507T271
530Q383 530 431 478T480 348V23Q480 13 474 7T457 0H413Q403 0 397 6T391 23V67Q369 34 327 12T219 -10Q170 -10 129 10ZM305 63T347 106T389 231V259L272 242Q200 232 163 208T126 148Q126 107 159 85T239 63Q305 63 347 106ZM259 595T253 597T238 606L122 701Q117
706 117 713Q117 732 136 732H201Q215 732 222 729T238 714L313 624Q318 619 318 611Q318 595 302 595H270Q259 595 253 597Z" />
<glyph unicode="&#xe1;" glyph-name="aacute" horiz-adv-x="550" d="M170 -10T129 10T63 64T38 141Q38 207 92 249T239 305L389 326V355Q389 458 270 458Q224 458 196 440T155 396Q151 386 147 383T134 379H95Q86 379 80 385T73 401Q73 424 94 454T161 507T271
530Q383 530 431 478T480 348V23Q480 13 474 7T457 0H413Q403 0 397 6T391 23V67Q369 34 327 12T219 -10Q170 -10 129 10ZM305 63T347 106T389 231V259L272 242Q200 232 163 208T126 148Q126 107 159 85T239 63Q305 63 347 106ZM214 595T214 611Q214 619 219 624L293
714Q303 725 310 728T330 732H395Q414 732 414 713Q414 706 409 701L294 606Q286 599 279 597T261 595H230Q214 595 214 611Z" />
<glyph unicode="&#xe2;" glyph-name="acircumflex" horiz-adv-x="550" d="M170 -10T129 10T63 64T38 141Q38 207 92 249T239 305L389 326V355Q389 458 270 458Q224 458 196 440T155 396Q151 386 147 383T134 379H95Q86 379 80 385T73 401Q73 424 94 454T161 507T271
530Q383 530 431 478T480 348V23Q480 13 474 7T457 0H413Q403 0 397 6T391 23V67Q369 34 327 12T219 -10Q170 -10 129 10ZM305 63T347 106T389 231V259L272 242Q200 232 163 208T126 148Q126 107 159 85T239 63Q305 63 347 106ZM120 595T120 607Q120 616 131 626L222
717Q232 727 238 729T255 732H283Q293 732 299 730T316 717L407 626Q418 615 418 607Q418 595 403 595H378Q361 595 351 602L269 659L187 602Q175 595 159 595H134Q120 595 120 607Z" />
<glyph unicode="&#xe3;" glyph-name="atilde" horiz-adv-x="550" d="M170 -10T129 10T63 64T38 141Q38 207 92 249T239 305L389 326V355Q389 458 270 458Q224 458 196 440T155 396Q151 386 147 383T134 379H95Q86 379 80 385T73 401Q73 424 94 454T161 507T271
530Q383 530 431 478T480 348V23Q480 13 474 7T457 0H413Q403 0 397 6T391 23V67Q369 34 327 12T219 -10Q170 -10 129 10ZM305 63T347 106T389 231V259L272 242Q200 232 163 208T126 148Q126 107 159 85T239 63Q305 63 347 106ZM302 590T290 595T261 610Q252 615
243 619T225 624Q217 624 212 620T202 609Q194 595 183 595H152Q145 595 141 600T136 611Q136 644 158 671T218 698Q236 698 248 693T277 678Q279 677 290 671T313 664Q322 664 326 668T336 680Q341 688 345 691T356 694H386Q394 694 398 689T403 678Q403 645 380
618T320 590Q302 590 290 595Z" />
<glyph unicode="&#xe4;" glyph-name="adieresis" horiz-adv-x="550" d="M170 -10T129 10T63 64T38 141Q38 207 92 249T239 305L389 326V355Q389 458 270 458Q224 458 196 440T155 396Q151 386 147 383T134 379H95Q86 379 80 385T73 401Q73 424 94 454T161 507T271
530Q383 530 431 478T480 348V23Q480 13 474 7T457 0H413Q403 0 397 6T391 23V67Q369 34 327 12T219 -10Q170 -10 129 10ZM305 63T347 106T389 231V259L272 242Q200 232 163 208T126 148Q126 107 159 85T239 63Q305 63 347 106ZM152 622T146 628T140 644V696Q140
706 146 712T162 719H214Q224 719 230 713T237 696V644Q237 634 231 628T214 622H162Q152 622 146 628ZM319 622T313 628T307 644V696Q307 706 313 712T329 719H382Q392 719 398 713T405 696V644Q405 634 399 628T382 622H329Q319 622 313 628Z" />
<glyph unicode="&#xe5;" glyph-name="aring" horiz-adv-x="550" d="M170 -10T129 10T63 64T38 141Q38 207 92 249T239 305L389 326V355Q389 458 270 458Q224 458 196 440T155 396Q151 386 147 383T134 379H95Q86 379 80 385T73 401Q73 424 94 454T161 507T271
530Q383 530 431 478T480 348V23Q480 13 474 7T457 0H413Q403 0 397 6T391 23V67Q369 34 327 12T219 -10Q170 -10 129 10ZM305 63T347 106T389 231V259L272 242Q200 232 163 208T126 148Q126 107 159 85T239 63Q305 63 347 106ZM233 590T209 612T185 668Q185 702
209 724T268 747Q303 747 327 725T351 668Q351 635 327 613T268 590Q233 590 209 612ZM281 638T289 646T298 668Q298 681 290 689T268 698Q255 698 247 690T238 668Q238 655 246 647T268 638Q281 638 289 646Z" />
<glyph unicode="&#xe6;" glyph-name="ae" horiz-adv-x="890" d="M170 -10T128 10T62 64T39 141Q39 208 93 251T240 307L390 328V355Q390 458 271 458Q225 458 197 440T155 396Q151 386 147 383T134 379H95Q86 379 80 385T73 401Q73 424 95 454T162 507T272 530Q340
530 383 509T446 451Q507 530 617 530Q743 530 793 452T843 270V252Q843 242 837 236T820 229H482V220Q484 140 523 102T616 63Q652 63 684 77T736 120Q744 131 749 134T767 137H808Q817 137 823 132T829 117Q829 97 804 67T730 13T616 -10Q548 -10 501 17T427
92Q366 -10 224 -10Q170 -10 128 10ZM752 297V301Q752 372 718 415T617 458Q562 458 523 418T482 301V297H752ZM306 63T348 106T390 231V259L273 242Q201 232 164 208T127 148Q127 107 160 85T240 63Q306 63 348 106Z" />
<glyph unicode="&#xe7;" glyph-name="ccedilla" horiz-adv-x="550" d="M249 -220T223 -206T196 -177Q196 -172 200 -169L215 -155Q219 -151 224 -151Q228 -151 238 -157T257 -167T281 -171Q298 -171 310 -161T322 -133Q322 -117 311 -108T281 -98Q269 -98 255
-102T236 -107Q227 -107 222 -101L205 -83Q202 -79 202 -74Q202 -69 209 -53L230 -5Q147 9 101 67T53 220L52 260L53 300Q56 409 116 469T283 530Q355 530 404 505T478 441T505 365Q506 356 499 349T482 342H438Q428 342 423 346T413 363Q395 412 364 432T284 453Q221
453 184 414T144 295L143 260L144 225Q147 145 184 106T284 67Q333 67 364 87T413 157Q418 169 423 173T438 178H482Q491 178 498 171T505 155Q503 118 479 80T406 16T285 -10L262 -56Q275 -48 299 -48Q333 -48 354 -71T376 -132Q376 -170 352 -195T283 -220Q249
-220 223 -206Z" />
<glyph unicode="&#xe8;" glyph-name="egrave" horiz-adv-x="559" d="M179 -10T118 53T51 227L50 261L51 294Q57 402 118 466T281 530Q391 530 451 460T512 270V252Q512 242 506 236T489 229H142V220Q145 155 182 109T280 63Q327 63 356 81T401 120Q410 132 415
134T432 137H476Q485 137 491 132T498 119Q498 97 471 66T395 13T281 -10Q179 -10 118 53ZM421 297V300Q421 370 383 414T281 458Q216 458 179 414T142 300V297H421ZM267 595T261 597T246 606L130 701Q125 706 125 713Q125 732 144 732H209Q223 732 230 729T246
714L321 624Q326 619 326 611Q326 595 310 595H278Q267 595 261 597Z" />
<glyph unicode="&#xe9;" glyph-name="eacute" horiz-adv-x="559" d="M179 -10T118 53T51 227L50 261L51 294Q57 402 118 466T281 530Q391 530 451 460T512 270V252Q512 242 506 236T489 229H142V220Q145 155 182 109T280 63Q327 63 356 81T401 120Q410 132 415
134T432 137H476Q485 137 491 132T498 119Q498 97 471 66T395 13T281 -10Q179 -10 118 53ZM421 297V300Q421 370 383 414T281 458Q216 458 179 414T142 300V297H421ZM239 595T239 611Q239 619 244 624L318 714Q328 725 335 728T355 732H420Q439 732 439 713Q439
706 434 701L319 606Q311 599 304 597T286 595H255Q239 595 239 611Z" />
<glyph unicode="&#xea;" glyph-name="ecircumflex" horiz-adv-x="559" d="M179 -10T118 53T51 227L50 261L51 294Q57 402 118 466T281 530Q391 530 451 460T512 270V252Q512 242 506 236T489 229H142V220Q145 155 182 109T280 63Q327 63 356 81T401 120Q410 132
415 134T432 137H476Q485 137 491 132T498 119Q498 97 471 66T395 13T281 -10Q179 -10 118 53ZM421 297V300Q421 370 383 414T281 458Q216 458 179 414T142 300V297H421ZM132 595T132 607Q132 616 143 626L234 717Q244 727 250 729T267 732H295Q305 732 311 730T328
717L419 626Q430 615 430 607Q430 595 415 595H390Q373 595 363 602L281 659L199 602Q187 595 171 595H146Q132 595 132 607Z" />
<glyph unicode="&#xeb;" glyph-name="edieresis" horiz-adv-x="559" d="M179 -10T118 53T51 227L50 261L51 294Q57 402 118 466T281 530Q391 530 451 460T512 270V252Q512 242 506 236T489 229H142V220Q145 155 182 109T280 63Q327 63 356 81T401 120Q410 132
415 134T432 137H476Q485 137 491 132T498 119Q498 97 471 66T395 13T281 -10Q179 -10 118 53ZM421 297V300Q421 370 383 414T281 458Q216 458 179 414T142 300V297H421ZM161 622T155 628T149 644V696Q149 706 155 712T171 719H223Q233 719 239 713T246 696V644Q246
634 240 628T223 622H171Q161 622 155 628ZM328 622T322 628T316 644V696Q316 706 322 712T338 719H391Q401 719 407 713T414 696V644Q414 634 408 628T391 622H338Q328 622 322 628Z" />
<glyph unicode="&#xec;" glyph-name="igrave" horiz-adv-x="240" d="M88 0T82 6T75 23V497Q75 507 81 513T98 520H142Q152 520 158 514T165 497V23Q165 13 159 7T142 0H98Q88 0 82 6ZM361 595T355 597T340 606L224 701Q219 706 219 713Q219 732 238 732H303Q317
732 324 729T340 714L415 624Q420 619 420 611Q420 595 404 595H372Q361 595 355 597Z" />
<glyph unicode="&#xed;" glyph-name="iacute" horiz-adv-x="240" d="M88 0T82 6T75 23V497Q75 507 81 513T98 520H142Q152 520 158 514T165 497V23Q165 13 159 7T142 0H98Q88 0 82 6ZM77 595T77 611Q77 619 82 624L156 714Q166 725 173 728T193 732H258Q277 732
277 713Q277 706 272 701L157 606Q149 599 142 597T124 595H93Q77 595 77 611Z" />
<glyph unicode="&#xee;" glyph-name="icircumflex" horiz-adv-x="240" d="M88 0T82 6T75 23V497Q75 507 81 513T98 520H142Q152 520 158 514T165 497V23Q165 13 159 7T142 0H98Q88 0 82 6ZM227 595T227 607Q227 616 238 626L329 717Q339 727 345 729T362 732H390Q400
732 406 730T423 717L514 626Q525 615 525 607Q525 595 510 595H485Q468 595 458 602L376 659L294 602Q282 595 266 595H241Q227 595 227 607Z" />
<glyph unicode="&#xef;" glyph-name="idieresis" horiz-adv-x="240" d="M88 0T82 6T75 23V497Q75 507 81 513T98 520H142Q152 520 158 514T165 497V23Q165 13 159 7T142 0H98Q88 0 82 6ZM255 622T249 628T243 644V696Q243 706 249 712T265 719H317Q327 719 333
713T340 696V644Q340 634 334 628T317 622H265Q255 622 249 628ZM422 622T416 628T410 644V696Q410 706 416 712T432 719H485Q495 719 501 713T508 696V644Q508 634 502 628T485 622H432Q422 622 416 628Z" />
<glyph unicode="&#xf0;" glyph-name="eth" horiz-adv-x="565" d="M171 -10T110 56T49 231Q49 339 110 404T280 470Q345 470 393 438Q371 501 333 548L234 510Q227 507 221 507Q212 507 207 511T202 525V546Q202 557 206 562T224 572L288 597Q260 623 217 658Q201
670 201 680Q201 689 206 694T221 700H269Q292 700 308 687L326 671Q350 650 371 629L463 664Q471 667 476 667Q485 667 490 663T495 649V628Q495 617 491 612T473 602L415 579Q461 521 485 441T511 241V228Q510 120 450 55T280 -10Q171 -10 110 56ZM347 65T382
109T419 224Q420 229 419 236Q419 306 384 350T280 395Q213 395 177 351T141 236V222Q143 152 178 109T280 65Q347 65 382 109Z" />
<glyph unicode="&#xf1;" glyph-name="ntilde" horiz-adv-x="604" d="M88 0T82 6T75 23V497Q75 507 81 513T98 520H141Q152 520 158 514T164 497V453Q194 490 233 510T332 530Q428 530 481 469T534 306V23Q534 13 528 7T511 0H465Q455 0 449 6T442 23V300Q442 372
407 412T307 452Q243 452 205 412T167 300V23Q167 13 161 7T144 0H98Q88 0 82 6ZM337 590T325 595T296 610Q287 615 278 619T260 624Q252 624 247 620T237 609Q229 595 218 595H187Q180 595 176 600T171 611Q171 644 193 671T253 698Q271 698 283 693T312 678Q314
677 325 671T348 664Q357 664 361 668T371 680Q376 688 380 691T391 694H421Q429 694 433 689T438 678Q438 645 415 618T355 590Q337 590 325 595Z" />
<glyph unicode="&#xf2;" glyph-name="ograve" horiz-adv-x="572" d="M176 -10T117 52T53 217L52 260L53 303Q57 406 117 468T286 530Q394 530 454 468T519 303Q521 281 521 260Q521 239 519 217Q515 114 456 52T286 -10Q176 -10 117 52ZM350 65T387 105T428 222Q429
232 429 260Q429 288 428 298Q425 374 388 414T286 455Q222 455 185 415T144 298L143 260L144 222Q147 146 184 106T286 65Q350 65 387 105ZM272 595T266 597T251 606L135 701Q130 706 130 713Q130 732 149 732H214Q228 732 235 729T251 714L326 624Q331 619 331
611Q331 595 315 595H283Q272 595 266 597Z" />
<glyph unicode="&#xf3;" glyph-name="oacute" horiz-adv-x="572" d="M176 -10T117 52T53 217L52 260L53 303Q57 406 117 468T286 530Q394 530 454 468T519 303Q521 281 521 260Q521 239 519 217Q515 114 456 52T286 -10Q176 -10 117 52ZM350 65T387 105T428 222Q429
232 429 260Q429 288 428 298Q425 374 388 414T286 455Q222 455 185 415T144 298L143 260L144 222Q147 146 184 106T286 65Q350 65 387 105ZM242 595T242 611Q242 619 247 624L321 714Q331 725 338 728T358 732H423Q442 732 442 713Q442 706 437 701L322 606Q314
599 307 597T289 595H258Q242 595 242 611Z" />
<glyph unicode="&#xf4;" glyph-name="ocircumflex" horiz-adv-x="572" d="M176 -10T117 52T53 217L52 260L53 303Q57 406 117 468T286 530Q394 530 454 468T519 303Q521 281 521 260Q521 239 519 217Q515 114 456 52T286 -10Q176 -10 117 52ZM350 65T387 105T428
222Q429 232 429 260Q429 288 428 298Q425 374 388 414T286 455Q222 455 185 415T144 298L143 260L144 222Q147 146 184 106T286 65Q350 65 387 105ZM137 595T137 607Q137 616 148 626L239 717Q249 727 255 729T272 732H300Q310 732 316 730T333 717L424 626Q435
615 435 607Q435 595 420 595H395Q378 595 368 602L286 659L204 602Q192 595 176 595H151Q137 595 137 607Z" />
<glyph unicode="&#xf5;" glyph-name="otilde" horiz-adv-x="572" d="M176 -10T117 52T53 217L52 260L53 303Q57 406 117 468T286 530Q394 530 454 468T519 303Q521 281 521 260Q521 239 519 217Q515 114 456 52T286 -10Q176 -10 117 52ZM350 65T387 105T428 222Q429
232 429 260Q429 288 428 298Q425 374 388 414T286 455Q222 455 185 415T144 298L143 260L144 222Q147 146 184 106T286 65Q350 65 387 105ZM319 590T307 595T278 610Q269 615 260 619T242 624Q234 624 229 620T219 609Q211 595 200 595H169Q162 595 158 600T153
611Q153 644 175 671T235 698Q253 698 265 693T294 678Q296 677 307 671T330 664Q339 664 343 668T353 680Q358 688 362 691T373 694H403Q411 694 415 689T420 678Q420 645 397 618T337 590Q319 590 307 595Z" />
<glyph unicode="&#xf6;" glyph-name="odieresis" horiz-adv-x="572" d="M176 -10T117 52T53 217L52 260L53 303Q57 406 117 468T286 530Q394 530 454 468T519 303Q521 281 521 260Q521 239 519 217Q515 114 456 52T286 -10Q176 -10 117 52ZM350 65T387 105T428
222Q429 232 429 260Q429 288 428 298Q425 374 388 414T286 455Q222 455 185 415T144 298L143 260L144 222Q147 146 184 106T286 65Q350 65 387 105ZM166 622T160 628T154 644V696Q154 706 160 712T176 719H228Q238 719 244 713T251 696V644Q251 634 245 628T228
622H176Q166 622 160 628ZM333 622T327 628T321 644V696Q321 706 327 712T343 719H396Q406 719 412 713T419 696V644Q419 634 413 628T396 622H343Q333 622 327 628Z" />
<glyph unicode="&#xf7;" glyph-name="divide" horiz-adv-x="557" d="M238 426T232 432T225 449V508Q225 519 231 525T248 532H308Q319 532 325 526T332 508V449Q332 439 325 433T308 426H248Q238 426 232 432ZM79 263T73 269T66 285V316Q66 327 72 333T89 339H469Q479
339 485 333T491 316V285Q491 275 485 269T469 263H89Q79 263 73 269ZM238 71T232 77T225 94V153Q225 163 231 169T248 176H308Q318 176 325 170T332 153V94Q332 84 326 78T308 71H248Q238 71 232 77Z" />
<glyph unicode="&#xf8;" glyph-name="oslash" horiz-adv-x="606" d="M213 -10T159 30T83 137L46 123Q39 120 33 120Q24 120 19 124T14 138V165Q14 177 18 182T36 192L71 205Q69 224 69 260Q69 289 70 303Q73 399 130 464T303 530Q393 530 447 489T522 380L560
395Q568 398 573 398Q582 398 587 394T592 380V352Q592 341 588 336T570 326L536 313Q538 283 538 256L537 217Q534 120 477 55T303 -10Q213 -10 159 30ZM439 348Q427 403 391 429T303 455Q243 455 204 418T162 304L161 274L162 240L439 348ZM365 65T403 102T445
218Q446 225 446 246Q446 269 445 278L167 170Q180 116 216 91T303 65Q365 65 403 102Z" />
<glyph unicode="&#xf9;" glyph-name="ugrave" horiz-adv-x="600" d="M174 -10T122 51T70 215V497Q70 507 76 513T93 520H139Q149 520 155 514T162 497V220Q162 68 294 68Q358 68 395 108T433 220V497Q433 507 439 513T456 520H502Q512 520 518 514T525 497V23Q525
13 519 7T502 0H459Q449 0 443 6T436 23V68Q407 29 368 10T269 -10Q174 -10 122 51ZM283 595T277 597T262 606L146 701Q141 706 141 713Q141 732 160 732H225Q239 732 246 729T262 714L337 624Q342 619 342 611Q342 595 326 595H294Q283 595 277 597Z" />
<glyph unicode="&#xfa;" glyph-name="uacute" horiz-adv-x="600" d="M174 -10T122 51T70 215V497Q70 507 76 513T93 520H139Q149 520 155 514T162 497V220Q162 68 294 68Q358 68 395 108T433 220V497Q433 507 439 513T456 520H502Q512 520 518 514T525 497V23Q525
13 519 7T502 0H459Q449 0 443 6T436 23V68Q407 29 368 10T269 -10Q174 -10 122 51ZM253 595T253 611Q253 619 258 624L332 714Q342 725 349 728T369 732H434Q453 732 453 713Q453 706 448 701L333 606Q325 599 318 597T300 595H269Q253 595 253 611Z" />
<glyph unicode="&#xfb;" glyph-name="ucircumflex" horiz-adv-x="600" d="M174 -10T122 51T70 215V497Q70 507 76 513T93 520H139Q149 520 155 514T162 497V220Q162 68 294 68Q358 68 395 108T433 220V497Q433 507 439 513T456 520H502Q512 520 518 514T525 497V23Q525
13 519 7T502 0H459Q449 0 443 6T436 23V68Q407 29 368 10T269 -10Q174 -10 122 51ZM149 595T149 607Q149 616 160 626L251 717Q261 727 267 729T284 732H312Q322 732 328 730T345 717L436 626Q447 615 447 607Q447 595 432 595H407Q390 595 380 602L298 659L216
602Q204 595 188 595H163Q149 595 149 607Z" />
<glyph unicode="&#xfc;" glyph-name="udieresis" horiz-adv-x="600" d="M174 -10T122 51T70 215V497Q70 507 76 513T93 520H139Q149 520 155 514T162 497V220Q162 68 294 68Q358 68 395 108T433 220V497Q433 507 439 513T456 520H502Q512 520 518 514T525 497V23Q525
13 519 7T502 0H459Q449 0 443 6T436 23V68Q407 29 368 10T269 -10Q174 -10 122 51ZM177 622T171 628T165 644V696Q165 706 171 712T187 719H239Q249 719 255 713T262 696V644Q262 634 256 628T239 622H187Q177 622 171 628ZM344 622T338 628T332 644V696Q332 706
338 712T354 719H407Q417 719 423 713T430 696V644Q430 634 424 628T407 622H354Q344 622 338 628Z" />
<glyph unicode="&#xfd;" glyph-name="yacute" horiz-adv-x="549" d="M157 -190T151 -184T145 -170Q145 -167 150 -152L228 31L37 482Q31 494 31 499Q32 508 38 514T52 520H98Q114 520 122 504L276 136L434 504Q442 520 458 520H503Q511 520 517 514T523 500Q523
493 518 482L235 -174Q230 -182 225 -186T210 -190H166Q157 -190 151 -184ZM233 595T233 611Q233 619 238 624L312 714Q322 725 329 728T349 732H414Q433 732 433 713Q433 706 428 701L313 606Q305 599 298 597T280 595H249Q233 595 233 611Z" />
<glyph unicode="&#xfe;" glyph-name="thorn" horiz-adv-x="595" d="M89 -190T83 -184T76 -167V687Q76 697 82 703T99 710H144Q154 710 160 704T167 687V455Q222 530 329 530Q434 530 486 464T543 294Q544 283 544 260Q544 237 543 226Q539 124 487 57T329 -10Q222
-10 167 66V-167Q167 -177 161 -183T144 -190H99Q89 -190 83 -184ZM382 68T415 113T451 231Q452 241 452 260Q452 452 310 452Q240 452 205 406T167 296L166 257L167 218Q169 157 205 113T310 68Q382 68 415 113Z" />
<glyph unicode="&#xff;" glyph-name="ydieresis" horiz-adv-x="549" d="M157 -190T151 -184T145 -170Q145 -167 150 -152L228 31L37 482Q31 494 31 499Q32 508 38 514T52 520H98Q114 520 122 504L276 136L434 504Q442 520 458 520H503Q511 520 517 514T523 500Q523
493 518 482L235 -174Q230 -182 225 -186T210 -190H166Q157 -190 151 -184ZM156 622T150 628T144 644V696Q144 706 150 712T166 719H218Q228 719 234 713T241 696V644Q241 634 235 628T218 622H166Q156 622 150 628ZM323 622T317 628T311 644V696Q311 706 317 712T333
719H386Q396 719 402 713T409 696V644Q409 634 403 628T386 622H333Q323 622 317 628Z" />
<glyph unicode="&#x2013;" glyph-name="endash" horiz-adv-x="574" d="M82 260T76 266T69 282V318Q69 328 75 334T92 341H482Q492 341 498 335T505 318V282Q505 272 499 266T482 260H92Q82 260 76 266Z" />
<glyph unicode="&#x2014;" glyph-name="emdash" horiz-adv-x="764" d="M82 260T76 266T69 282V318Q69 328 75 334T92 341H672Q682 341 688 335T695 318V282Q695 272 689 266T672 260H92Q82 260 76 266Z" />
<glyph unicode="&#x2018;" glyph-name="quoteleft" horiz-adv-x="233" d="M61 520T57 525T52 537Q52 543 55 553L107 687Q112 699 118 704T136 710H167Q175 710 179 704T182 689L160 549Q157 520 132 520H68Q61 520 57 525Z" />
<glyph unicode="&#x2019;" glyph-name="quoteright" horiz-adv-x="227" d="M65 520T61 525T58 541L80 681Q84 710 108 710H172Q179 710 183 705T188 693Q188 683 185 677L133 542Q128 531 122 526T104 520H73Q65 520 61 525Z" />
<glyph unicode="&#x201a;" glyph-name="quotesinglbase" horiz-adv-x="248" d="M59 -75T55 -69T52 -54L74 87Q78 116 102 116H166Q173 116 177 111T182 99Q182 89 179 82L127 -52Q122 -64 116 -69T98 -75H67Q59 -75 55 -69Z" />
<glyph unicode="&#x201c;" glyph-name="quotedblleft" horiz-adv-x="390" d="M61 520T57 525T52 537Q52 543 55 553L107 687Q112 699 118 704T136 710H167Q175 710 179 704T182 689L160 549Q157 520 132 520H68Q61 520 57 525ZM218 520T214 525T209 537Q209 543
212 553L264 687Q269 699 275 704T293 710H324Q332 710 336 704T339 689L317 549Q314 520 289 520H225Q218 520 214 525Z" />
<glyph unicode="&#x201d;" glyph-name="quotedblright" horiz-adv-x="384" d="M65 520T61 526T58 541L80 681Q84 710 108 710H172Q179 710 183 705T188 693Q188 683 185 677L133 542Q128 531 122 526T104 520H73Q65 520 61 526ZM222 520T218 526T215 541L237 681Q241
710 265 710H329Q336 710 340 705T345 693Q345 683 342 677L290 542Q285 531 279 526T261 520H230Q222 520 218 526Z" />
<glyph unicode="&#x201e;" glyph-name="quotedblbase" horiz-adv-x="405" d="M59 -75T55 -69T52 -54L74 87Q78 116 102 116H166Q173 116 177 111T182 99Q182 89 179 82L127 -52Q122 -64 116 -69T98 -75H67Q59 -75 55 -69ZM216 -75T212 -69T209 -54L231 87Q235
116 259 116H323Q330 116 334 111T339 99Q339 89 336 82L284 -52Q279 -64 273 -69T255 -75H224Q216 -75 212 -69Z" />
<glyph unicode="&#x2022;" glyph-name="bullet" horiz-adv-x="381" d="M147 202T116 233T84 308Q84 352 115 383T191 415Q235 415 266 384T297 308Q297 265 266 234T191 202Q147 202 116 233Z" />
<glyph unicode="&#x2039;" glyph-name="guilsinglleft" horiz-adv-x="352" d="M267 85T252 96L59 283Q45 297 43 317V341Q45 361 59 375L252 562Q265 573 274 573Q283 573 289 567T295 552V515Q295 503 291 495T277 477L124 329L277 181Q287 171 291 164T295 143V106Q295
97 289 91T274 85Q267 85 252 96Z" />
<glyph unicode="&#x203a;" glyph-name="guilsinglright" horiz-adv-x="352" d="M69 85T63 91T57 106V143Q57 156 61 163T75 181L228 329L75 477Q65 487 61 495T57 515V552Q57 561 63 567T78 573Q87 573 100 562L293 375Q309 359 309 341V317Q309 299 293 283L100
96Q85 85 78 85Q69 85 63 91Z" />
</font>
</defs>
</svg>
